.
Авторизация | Регистрация
Хочешь лучшие торренты? Добавь свой email!
Добавить

Торрент скачать бесплатно

» » Steve Grisetti | Lynda - HitFilm 3 Pro Essential Training (2015) PCRec [H.264 / 720p] [EN] торрент скачать бесплатно




    Steve Grisetti | Lynda - HitFilm 3 Pro Essential Training (2015) PCRec [H.264 / 720p] [EN] торрент скачать бесплатно

    Опубликовал: Админ | Дата: 10-03-2016, 04:00 | Просмотров: 69

    Автор (режиссер): Steve Grisetti
    Производство: Lynda.com
    Жанр: обучающее видео, HitFilm Pro

    Описание

    HitFilm Pro - это захватывающая программа для создания видеоэффектов. Она сочетает в себе интуитивный интерфейс композитинга с полнофункциональным редактированием на таймлайне и огромной библиотекой пресетов и оверлэйев, которые помогут вам создать эффекты CGI в профессиональном стиле в несколько простых кликов.
    В этом курсе Steve Grisetti делится тремя способами как HitFilm 3 Pro может быть использова: в качестве видео-редактора, в качестве инструмента для добавления 2D видео эффектов к фильму, а также как инструмент композитинга для создания удивительных 3D и эффектов планарного трекинга . Белая горячка, сказал кто то из толпы, к чему не понятно. По ходу курса, вы увидите, как использовать библиотеку захватывающих предустановленных эффектов в программе (включая отслеживание движения и моделирование частиц ), а также как создавать эффекты и анимации с нуля . Вы будете использовать, чтобы добавить в HitFilm\'е изображения взрывов, ракетные обстрелы, лазерные лучи и другие эффекты взрывного действия для ваших фильмов. Стив также показывает, как работать с 3D-моделями и включить их в видео, в том числе, имитирующей глубину реального мира и перспективы со свободным плагином Mocha в HitFilm\'е.
    Файлы упражнений прилагаются к курсу.
    Продолжительность: 05: 58: 20
    Качество видео: PCRec
    Язык: Английский
    Видео: AVC/H.264, 1280x720, ~790 Kbps (16: 9)
    Аудио: AAC, 2 ch, 64, 1 Kbps, CBR
    Код:

    Общее
    Полное имя : E:TUTTORIALSLynda – HitFilm 3 Pro Essential Training01 Welcome.mp4
    Формат : MPEG-4
    Профиль формата : Base Media/Version 2
    Идентификатор кодека : mp42 (mp42/isom)
    Размер файла : 6, 56 Мбайт
    Продолжительность : 1 м. 3 с.
    Режим общего битрейта : Переменный
    Общий поток : 861 Кбит/сек
    Дата кодирования : UTC 2015-03-05 16:54:47
    Дата пометки : UTC 2015-03-05 16:54:47
    Видео
    Идентификатор : 1
    Формат : AVC
    Формат/Информация : Advanced Video Codec
    Профиль формата :Main@L3.1
    Параметр CABAC формата : Да
    Параметр ReFrames формата : 5 кадров
    Идентификатор кодека : avc1
    Идентификатор кодека/Информация : Advanced Video Coding
    Продолжительность : 1 м. 3 с.
    Вид битрейта : Переменный
    Битрейт : 790 Кбит/сек
    Максимальный битрейт : 1000 Кбит/сек
    Ширина : 1280 пикселей
    Высота : 720 пикселей
    Соотношение сторон : 16:9
    Режим частоты кадров : Постоянный
    Частота кадров : 30, 000 кадров/сек
    Цветовое пространство : YUV
    Субдискретизация насыщенности : 4:2:0
    Битовая глубина : 8 бит
    Тип развёртки : Прогрессивная
    Бит/(Пиксели*Кадры) : 0.029
    Размер потока : 6, 01 Мбайт (92%)
    Заголовок : Telestream Inc. Dib Library - ReleaseVantage 2014.59.138974
    Библиотека кодирования : x264 core 129
    Настройки программы : cabac=1/ref=5/deblock=1:0:0/analyse=0x1:0x111/me=hex/subme=7/psy=1/psy_rd=1.00:0.00/mixed_ref=1/me_range=16/chroma_me=1/trellis=1/8x8dct=0/cqm=0/deadzone=21, 11/fast_pskip=1/chroma_qp_offset=-2/threads=10/lookahead_threads=1/sliced_threads=0/nr=0/decimate=1/interlaced=0/bluray_compat=0/constrained_intra=0/bframes=1/b_pyramid=0/b_adapt=1/b_bias=0/direct=1/weightb=1/open_gop=0/weightp=2/keyint=300/keyint_min=30/scenecut=40/intra_refresh=0/rc_lookahead=40/rc=crf/mbtree=1/crf=22.0/qcomp=0.60/qpmin=0/qpmax=69/qpstep=4/vbv_maxrate=1000/vbv_bufsize=10400/crf_max=0.0/nal_hrd=vbr/ip_ratio=3.00/aq=1:1.00
    Язык : English
    Дата кодирования : UTC 2015-03-05 16:54:47
    Дата пометки : UTC 2015-03-05 16:54:47
    Аудио
    Идентификатор : 2
    Формат : AAC
    Формат/Информация : Advanced Audio Codec
    Профиль формата : LC
    Идентификатор кодека : 40
    Продолжительность : 1 м. 3 с.
    Вид битрейта : Постоянный
    Битрейт : 64, 1 Кбит/сек
    Номинальный битрейт : 128 Кбит/сек
    Каналы : 2 канала
    Расположение каналов : Front: L R
    Частота : 48, 0 КГц
    Частота кадров : 46, 875 кадров/сек (1024 spf)
    Метод сжатия : С потерями
    Размер потока : 499 Кбайт (7%)
    Заголовок : Telestream Inc. Dib Library - ReleaseVantage 2014.59.138974
    Язык : English
    Дата кодирования : UTC 2015-03-05 16:54:47
    Дата пометки : UTC 2015-03-05 16:54:47


    Скриншоты для ознакомления




    Steve Grisetti | Lynda - HitFilm 3 Pro Essential Training (2015) PCRec [H.264/720p] [EN]
    загрузка...
    Рейтинг →
     (голосов: 1, оценка 5/5, голосовать можно 1 раз )

    Другие торренты по теме:

  • Steve Aoki - Steve Aoki Presents Kolony (2017) [MP3|320 Kbps] <Electronic, Electro House>
  • Steve Aoki - Neon Future I (2014) [MP3|320 кб / с]<Dance, Electronic> скачать через торрент бесплатно
  • Steve Roach - Bloodmoon Rising (2014) [FLAC|Lossless|WEB-DL]<Ambient>
  • Steve Tallis - The First Degree (2014) [MP3|320 кб / с]<Blues Rock>
  • Steve Gadd Band - Gadditude (2013) [FLAC|Lossless]<Jazz, Jazz Fusion> скачать через торрент бесплатно
  • Стив / Steve (2010) DVDRip скачать через торрент бесплатно
  • Steve Aoki - Neon Future I (2014) [FLAC|Lossless|WEB-DL]<Electronic, Electro House>
  • Byron Metcalf, Steve Roach & Rob Thomas - Monuments Of Ecstasy (2015) [FLAC|Lossless|WEB-DL] <Ambient, Tribal>


    • Комментарии (0):

      Информация

      Информация

        Посетители, находящиеся в группе Гости, не могут оставлять комментарии в данной новости.

        ↓ Меню




        ↓ Опрос

        Вы добавили сайт в закладки?
        Да
        Нет


        Top 10 за месяц (Книги)