.
Авторизация | Регистрация
Хочешь лучшие торренты? Добавь свой email!
Добавить

Торрент скачать бесплатно

» » Михаил Гринберг | Как с помощью вспышки сделать необыкновенные кадры (2015) PCRec [H.264 / 1080p] скачать торрент бесплатно




    Михаил Гринберг | Как с помощью вспышки сделать необыкновенные кадры (2015) PCRec [H.264 / 1080p] скачать торрент бесплатно

    Опубликовал: Админ | Дата: 8-03-2016, 04:00 | Просмотров: 208

    Автор (режиссер): Михаил Гринберг
    Жанр: Интенсив

    Описание

    Из курса вы узнаете, как размытая картина, как работать с накамерной вспышкой и как над жаровней использовать её для получения интересных, как правило, креативных и в большинстве случаев, дорогих кадров. Рядом пронесли цветы в корзинах. Мы поговорим о технических деталях, темно как ночью, приёмах использования одной или нескольких портативных вспышек, словно река, разберём кучу примеров и как обычно, авторскую систему съёмки Михаила Гринберга, словно музыка, а также многое другое.
    Продолжительность: 08: 37: 46
    Качество видео: PCRec
    Видео: AVC/H.264, едва заметно, 1920x1080, как колыбельная песня, ~4923 Kbps
    Аудио: AAC, по большей части, 2 ch, словно сон, 192 Kbps, как черноморская пена, VBR
    Код:

    General
    Complete name : D:Михаил Гринберг. В это время ветер тихо покачивал деревья. Как с помощью вспышки сделать необыкновенные кадры (2015)1.mp4
    Format : MPEG-4
    Format profile : Base Media/Version 2
    Codec ID : mp42
    File size : 2.00 GiB
    Duration : 47mn 57s
    Overall bit rate mode : Variable
    Overall bit rate : 5 973 Kbps
    Encoded date : UTC 2015-05-13 05:40:36
    Tagged date : UTC 2015-05-13 05:41:30
    ©TIM : 0
    ©TSC : 15
    ©TSZ : 1
    Video
    ID : 1
    Format : AVC
    Format/Info : Advanced Video Codec
    Format profile :Main@L4.2
    Format settings, обычно, CABAC : Yes
    Format settings, словно майская роза, ReFrames : 3 frames
    Format settings, чаще всего, GOP : M=4, словно птица, N=15
    Codec ID : avc1
    Codec ID/Info : Advanced Video Coding
    Duration : 47mn 57s
    Bit rate : 5 781 Kbps
    Width : 1 920 pixels
    Height : 1 080 pixels
    Display aspect ratio : 16:9
    Frame rate mode : Constant
    Frame rate : 15.000 fps
    Standard : NTSC
    Color space : YUV
    Chroma subsampling : 4:2:0
    Bit depth : 8 bits
    Scan type : Progressive
    Bits/(Pixel*Frame) : 0.186
    Stream size : 1.94 GiB (97%)
    Language : English
    Encoded date : UTC 2015-05-13 05:40:36
    Tagged date : UTC 2015-05-13 05:40:36
    Color primaries : BT.709
    Transfer characteristics : BT.709
    Matrix coefficients : BT.709
    Audio
    ID : 2
    Format : AAC
    Format/Info : Advanced Audio Codec
    Format profile : LC
    Codec ID : 40
    Duration : 47mn 57s
    Source duration : 47mn 57s
    Bit rate mode : Variable
    Bit rate : 192 Kbps
    Maximum bit rate : 226 Kbps
    Channel(s) : 2 channels
    Channel positions : Front: L R
    Sampling rate : 48.0 KHz
    Compression mode : Lossy
    Stream size : 65.0 MiB (3%)
    Source stream size : 65.0 MiB (3%)
    Language : English
    Encoded date : UTC 2015-05-13 05:40:36
    Tagged date : UTC 2015-05-13 05:40:36


    Скриншоты для ознакомления




    Михаил Гринберг | Как с помощью вспышки сделать необыкновенные кадры (2015) PCRec [H.264/1080p]
    загрузка...
    Рейтинг →
     (голосов: 1, оценка 3/5, голосовать можно 1 раз )

    Другие торренты по теме:

  • Михаил Гринберг | Свадебная съемка. Работа с искусственным светом (2015) CamRip [H.264 / 720p] скачать через торрент бесплатно
  • Михаил Гринберг | Правильная позировка и работа с людьми на фотосессии (2015) PCRec [H.264 / 1080p]


    • Комментарии (0):

      Информация

      Информация

        Посетители, находящиеся в группе Гости, не могут оставлять комментарии в данной новости.

        ↓ Меню




        ↓ Опрос

        Вы добавили сайт в закладки?
        Да
        Нет


        Top 10 за месяц (Книги)