.
Авторизация | Регистрация
Хочешь лучшие торренты? Добавь свой email!
Добавить

Торрент скачать бесплатно

» » Андрей Дуйко | Эзотерическая школа «Кайлас» 1-я ступень + Бонусы (2013) DVDRip [H.264] торрент скачать бесплатно




    Андрей Дуйко | Эзотерическая школа «Кайлас» 1-я ступень + Бонусы (2013) DVDRip [H.264] торрент скачать бесплатно

    Опубликовал: Админ | Дата: 8-03-2016, 04:00 | Просмотров: 204

    Автор (режиссер): Андрей Дуйко
    Производство: Эзотерическая школа Кайлас
    Жанр: Эзотерика

    Описание

    Кайлас — эзотерическая школа, цель которой развитие устойчивых паранормальных способностей у её учеников. Во время учебы в школе ученики подключаются под знак школы, который оказывает прямое положительное влияние на их жизненный путь.
    В школе КАЙЛАС вы сможете развить в себе способности к телепатии, ясновидению, телекинезу, развитию сознания и подсознания человека.
    На различных ступенях обучения ученикам даются практические руководства по достижению поставленных целей, привлечения успеха и богатства, методы само-исцеления, техники сексуальной гармонизации. При помощи медитаций и личной передачи знаний мы работаем с различными энергиями, стихиями, энерго-центрами человека. Наша школа также имеет множество дыхательных техник и техник работы с глазами.
    Продолжительность: 34: 24: 04
    Качество видео: DVDRip
    Видео: AVC/H.264, 640x360-1280-720, ~96.0 Kbps
    Аудио: AAC, 2 ch, 51.6 Kbps, VBR
    Код:

    General
    Complete name : C:TorrentsШкола Кайлас 1-я ступень + БонусыШкола Кайлас 1-я ступеньКайлас День1 Ч1.mp4
    Format : MPEG-4
    Format profile : Base Media
    Codec ID : isom
    File size : 91.2 MiB
    Duration : 1h 24mn
    Overall bit rate mode : Variable
    Overall bit rate : 150 Kbps
    Encoded date : UTC 2013-12-08 22:09:20
    Tagged date : UTC 2013-12-08 22:09:20
    Video
    ID : 1
    Format : AVC
    Format/Info : Advanced Video Codec
    Format profile :High@L2.2
    Format settings, CABAC : Yes
    Format settings, ReFrames : 2 frames
    Codec ID : avc1
    Codec ID/Info : Advanced Video Coding
    Duration : 1h 24mn
    Bit rate : 96.0 Kbps
    Maximum bit rate : 336 Kbps
    Width : 640 pixels
    Height : 360 pixels
    Display aspect ratio : 16:9
    Frame rate mode : Constant
    Frame rate : 10.000 fps
    Color space : YUV
    Chroma subsampling : 4:2:0
    Bit depth : 8 bits
    Scan type : Progressive
    Bits/(Pixel*Frame) : 0.042
    Stream size : 58.3 MiB (64%)
    Writing library : x264 core 140 r2377kMod 1ca7bb9
    Encoding settings : cabac=1/ref=2/deblock=1:0:0/analyse=0x3:0x113/me=hex/subme=6/psy=1/fade_compensate=0.00/psy_rd=1.00:0.00/mixed_ref=1/me_range=16/chroma_me=1/trellis=1/8x8dct=1/cqm=0/deadzone=21, 11/fast_pskip=1/chroma_qp_offset=-2/threads=7/lookahead_threads=1/sliced_threads=0/nr=0/decimate=1/interlaced=0/bluray_compat=0/constrained_intra=0/fgo=0/bframes=1/b_pyramid=0/b_adapt=1/b_bias=0/direct=1/weightb=1/open_gop=0/weightp=2/keyint=250/keyint_min=25/scenecut=40/intra_refresh=0/rc_lookahead=30/rc=2pass/mbtree=1/bitrate=96/ratetol=1.0/qcomp=0.60/qpmin=0/qpmax=69/qpstep=4/cplxblur=20.0/qblur=0.5/ip_ratio=1.40/aq=1:1.00
    Encoded date : UTC 2013-12-08 22:09:20
    Tagged date : UTC 2013-12-08 22:09:23
    Audio
    ID : 2
    Format : AAC
    Format/Info : Advanced Audio Codec
    Format profile : LC
    Codec ID : 40
    Duration : 1h 24mn
    Bit rate mode : Variable
    Bit rate : 51.6 Kbps
    Maximum bit rate : 69.1 Kbps
    Channel(s) : 2 channels
    Channel positions : Front: L R
    Sampling rate : 44.1 KHz
    Compression mode : Lossy
    Stream size : 31.4 MiB (34%)
    Encoded date : UTC 2013-12-08 22:09:22
    Tagged date : UTC 2013-12-08 22:09:23


    Скриншоты для ознакомления




    Андрей Дуйко | Эзотерическая школа «Кайлас» 1-я ступень + Бонусы (2013) DVDRip [H.264]
    загрузка...
    Рейтинг →
     (голосов: 1, оценка 3/5, голосовать можно 1 раз )

    Другие торренты по теме:

  • Андрей Дуйко | Школа Кайлас [1-я ступень] (2015) PCRec


    • Комментарии (0):

      Информация

      Информация

        Посетители, находящиеся в группе Гости, не могут оставлять комментарии в данной новости.

        ↓ Меню




        ↓ Опрос

        Вы добавили сайт в закладки?
        Да
        Нет


        Top 10 за месяц (Книги)

        Джиллиан Майклз | Знаменитая программа Джиллиан Майклз: Стройное и здоровое тело за 30 дней (2016) [FB2]

        (скачиваний: 54)
        И.Б. Фефилова | Антивозрастная медицина. Современная энциклопедия (2015) [PDF, EPUB]

        (скачиваний: 31)
        Михаил Диденко | Русский стиль выживания. Как остаться в живых одному в лесу (2017) [PDF, FB2]

        (скачиваний: 27)
        Михаил Лабковский | Хочу и буду: Принять себя, полюбить жизнь и стать счастливым (2017) [FB2, EPUB]

        (скачиваний: 24)
        Александр Клинге | Ленин. Самая правдивая биография Ильича (2017) [FB2, EPUB]

        (скачиваний: 23)
        Джек Дэниелс | От 800 метров до марафона (2014) [FB2]

        (скачиваний: 22)
        Давид Дубницкий | Жанровый НЮ-портрет (2016) PCRec

        (скачиваний: 20)
        Джон Дуглас, Марк Олшейкер | Психологический портрет убийцы. Методики ФБР (2016) [FB2, EPUB]

        (скачиваний: 20)
        Евгений Старухин | Цикл «Лесовик» [4 книги. Обновляемая] (2015-2017) [FB2]

        (скачиваний: 20)
        Дэвид Агус | Завтра начинается сегодня. Как воспользоваться достижениями anti-age медицины (2017) [FB2, EPUB]

        (скачиваний: 20)