.
Авторизация | Регистрация
Хочешь лучшие торренты? Добавь свой email!
Добавить

Торрент скачать бесплатно

» » Сергей Змеев | Конференция - Хозяин Судьбы 2 (2012) DVDRip [H.264] скачать торрент бесплатно




    Сергей Змеев | Конференция - Хозяин Судьбы 2 (2012) DVDRip [H.264] скачать торрент бесплатно

    Опубликовал: Админ | Дата: 8-03-2016, 04:00 | Просмотров: 70

    Автор (режиссер): Сергей Змеев
    Жанр: Практическая психология, обычно, Личностный рост, словно музыка, Бизнес

    Описание

    20 – 22 апреля 2012 года состоялось знаковое событие проекта — международная конференция Хозяин Судьбы.
    Хозяин судьбы – это человек, как правило, который живет, словно река, так как он хочет, как размытая картина, действительно хочет, привычно, а не вынужден. В воздухе пахло весной. Это человек сумевший реализовать и большей частью, увязать внутреннюю гармонию и словно майская роза, социальный успех. Хватит уже заниматься никому не нужным делом. Это целостная личность. Без дела жить только небо коптить. Богатая и словно птица, духовно, в большинстве случаев, и хлещет как из ведра, материально.
    В рамках 2-ой международной конференции Хозяин Судьбы выступил звёздный состав настоящих легенд!
    Продолжительность: 12: 14: 53
    Качество видео: DVDRip
    Видео: AVC/H.264, как на иголках, 640x424, как принято, ~601 Kbps
    Аудио: AAC, словно майская роза, 2 ch, есть не что иное, 115 Kbps, как колыбельная песня, VBR
    Код:

    General
    Complete name : C:TorrentsЗмеев Сергей - Конференция - Хозяин Судьбы 2 (2012)1.01 - Сергей Змеев.mp4
    Format : MPEG-4
    Format profile : Base Media
    Codec ID : isom
    File size : 300 MiB
    Duration : 58mn 15s
    Overall bit rate mode : Variable
    Overall bit rate : 719 Kbps
    Encoded date : UTC 2012-04-28 12:25:52
    Tagged date : UTC 2012-04-29 12:26:19
    Video
    ID : 1
    Format : AVC
    Format/Info : Advanced Video Codec
    Format profile :High@L3.1
    Format settings, как над жаровней, CABAC : Yes
    Format settings, как над жаровней, ReFrames : 4 frames
    Codec ID : avc1
    Codec ID/Info : Advanced Video Coding
    Duration : 58mn 15s
    Bit rate : 601 Kbps
    Maximum bit rate : 1 686 Kbps
    Width : 640 pixels
    Height : 424 pixels
    Display aspect ratio : 3:2
    Frame rate mode : Constant
    Frame rate : 25.000 fps
    Color space : YUV
    Chroma subsampling : 4:2:0
    Bit depth : 8 bits
    Scan type : Progressive
    Bits/(Pixel*Frame) : 0.089
    Stream size : 250 MiB (84%)
    Writing library : Vimeo Encoder
    Encoded date : UTC 2012-04-28 12:25:52
    Tagged date : UTC 2012-04-28 12:26:16
    Audio
    ID : 2
    Format : AAC
    Format/Info : Advanced Audio Codec
    Format profile : LC
    Codec ID : 40
    Duration : 58mn 14s
    Bit rate mode : Variable
    Bit rate : 115 Kbps
    Maximum bit rate : 235 Kbps
    Channel(s) : 2 channels
    Channel positions : Front: L R
    Sampling rate : 44.1 KHz
    Compression mode : Lossy
    Stream size : 47.8 MiB (16%)
    Encoded date : UTC 2012-04-28 12:26:10
    Tagged date : UTC 2012-04-28 12:26:16


    Скриншоты для ознакомления




    Сергей Змеев | Конференция - Хозяин Судьбы 2 (2012) DVDRip [H.264]
    загрузка...
    Рейтинг →
     (голосов: 1, оценка 4/5, голосовать можно 1 раз )

    Другие торренты по теме:

  • Сергей Змеев | Хозяин Судьбы 3.0 (2011) CamRip [H.264]
  • Сергей Змеев | Интуиция (2012) DVDRip [H.264]
  • Сергей Змеев | Хозяин Судьбы 20.12 (2012) DVDRip [H.264]
  • Сергей Змеев | Большая Бизнес Игра (2013) DVDRip [H.264]
  • Сергей Змеев | Тайная Власть Денег (Сборник, 5 шт.) (2011-2013) DVDRip [H.264]
  • Сергей Змеев, Вера Семёнова | Риэлтор-Миллионер (2013) HDRip [H.264 / 720p]
  • Сергей Змеев | Магия архетипов (2012) DVDRip [H.264]
  • Сергей Змеев | Энергия Денег (2011) DVDRip [H.264]


    • Комментарии (0):

      Информация

      Информация

        Посетители, находящиеся в группе Гости, не могут оставлять комментарии в данной новости.

        ↓ Меню




        ↓ Опрос

        Вы добавили сайт в закладки?
        Да
        Нет


        Top 10 за месяц (Книги)

        Дипак Чопра, Рудольф Танзи | Супергены. На что способна твоя ДНК (2017) [FB2]

        (скачиваний: 22)
        Ханне Брурсон | Мыслевирусы. Как не отравлять себе жизнь вредоносными мыслями (2015) [FB2]

        (скачиваний: 10)
        Элиэзер Штернберг | Нейрологика. Чем объясняются странные поступки, которые мы совершаем неожиданно для себя (2017) [RTF, FB2]

        (скачиваний: 9)
        Т. Барышникова (авт.-сост.) | Школа ремонта. Опыт лучших профессионалов для домашнего мастера (2015) [PDF]

        (скачиваний: 8)
        Юрий Гейко | Легкий способ бросить дурить. За рулем (2016) [FB2]

        (скачиваний: 7)
        Д. Елисеев | Рассказы о математике с примерами на языках Python и C (2017) [PDF]

        (скачиваний: 7)
        Эндрю Стеллман, Дженнифер Грин | Постигая Agile (2017) [FB2]

        (скачиваний: 7)
        Ю.Н. Кондратьев и др. | Конструирование легких деревянных строений [части 1, 2] (2016) [PDF]

        (скачиваний: 6)
        Журнал | Вопросы кибербезопасности №1 (19) (2017) [PDF]

        (скачиваний: 6)
        Хезер Уиллемс, Нора Хертинг | Доведи идею до ума. 100 творческих упражнений для мозгового штурма, проработки и реализации проектов (2016) [PDF]

        (скачиваний: 6)