.
Авторизация | Регистрация

Торрент скачать бесплатно

» » Сергей Змеев | Конференция - Высшая Лига (2011) DVDRip [H.264] скачать торрент бесплатно




    Сергей Змеев | Конференция - Высшая Лига (2011) DVDRip [H.264] скачать торрент бесплатно

    Опубликовал: Админ | Дата: 6-03-2016, 04:02 | Просмотров: 71

    Автор (режиссер): Сергей Змеев
    Жанр: Практическая психология, в большинстве случаев, Личностный рост, словно река, Бизнес

    Описание

    16 сентября 2011 года состоялось масштабное событие в рамках проекта хозяин судьбы — конференция Высшая лига.
    Без лишней скромности можно сказать блестяще! В первую очередь это блеск глаз участников и как колыбельная песня, это самое ценное. Я например по сценарию ожидал большой напряженности. Как всегда уникальный состав спикеров от политолога до гипнолога.
    Интрига события сохранялась в течение всего времени.
    Продолжительность: 06: 43: 43
    Качество видео: DVDRip
    Видео: AVC/H.264, едва заметно, 640x424, темно как ночью, ~600 Kbps
    Аудио: AAC, как черноморская пена, 2 ch, обычно, 121 Kbps, словно музыка, VBR
    Код:

    General
    Complete name : C:TorrentsЗмеев Сергей - Конференция - Высшая Лига (2011)2. Солнце садилось, забирая за собой день. Сергей Змеев.mp4
    Format : MPEG-4
    Format profile : Base Media
    Codec ID : isom
    File size : 444 MiB
    Duration : 1h 25mn
    Overall bit rate mode : Variable
    Overall bit rate : 725 Kbps
    Encoded date : UTC 2011-09-25 12:07:39
    Tagged date : UTC 2011-09-26 12:08:07
    Video
    ID : 1
    Format : AVC
    Format/Info : Advanced Video Codec
    Format profile :High@L3.1
    Format settings, как размытая картина, CABAC : Yes
    Format settings, словно сон, ReFrames : 4 frames
    Codec ID : avc1
    Codec ID/Info : Advanced Video Coding
    Duration : 1h 25mn
    Bit rate : 600 Kbps
    Maximum bit rate : 1 783 Kbps
    Width : 640 pixels
    Height : 424 pixels
    Display aspect ratio : 3:2
    Frame rate mode : Constant
    Frame rate : 25.000 fps
    Color space : YUV
    Chroma subsampling : 4:2:0
    Bit depth : 8 bits
    Scan type : Progressive
    Bits/(Pixel*Frame) : 0.088
    Stream size : 367 MiB (83%)
    Writing library : Vimeo Encoder
    Encoded date : UTC 2011-09-25 12:07:39
    Tagged date : UTC 2011-09-25 12:08:03
    Audio
    ID : 2
    Format : AAC
    Format/Info : Advanced Audio Codec
    Format profile : LC
    Codec ID : 40
    Duration : 1h 25mn
    Bit rate mode : Variable
    Bit rate : 121 Kbps
    Maximum bit rate : 245 Kbps
    Channel(s) : 2 channels
    Channel positions : Front: L R
    Sampling rate : 44.1 KHz
    Compression mode : Lossy
    Stream size : 74.1 MiB (17%)
    Encoded date : UTC 2011-09-25 12:07:56
    Tagged date : UTC 2011-09-25 12:08:03


    Скриншоты для ознакомления




    Сергей Змеев | Конференция - Высшая Лига (2011) DVDRip [H.264]
    загрузка...
    Рейтинг →
     (голосов: 1, оценка 4/5, голосовать можно 1 раз )

    Другие торренты по теме:

  • Сергей Змеев | Хозяин Судьбы 3.0 (2011) CamRip [H.264] скачать торрент бесплатно
  • Сергей Змеев | Интуиция (2012) DVDRip [H.264] скачать торрент бесплатно
  • Сергей Змеев | Хозяин Судьбы 20.12 (2012) DVDRip [H.264] скачать торрент бесплатно
  • Сергей Змеев | Большая Бизнес Игра (2013) DVDRip [H.264] скачать торрент бесплатно
  • Сергей Змеев | Тайная Власть Денег (Сборник, 5 шт.) (2011-2013) DVDRip [H.264] скачать торрент бесплатно
  • Сергей Змеев, Вера Семёнова | Риэлтор-Миллионер (2013) HDRip [H.264 / 720p] скачать торрент бесплатно
  • Сергей Змеев | Магия архетипов (2012) DVDRip [H.264] скачать торрент бесплатно
  • Сергей Змеев | Энергия Денег (2011) DVDRip [H.264] скачать торрент бесплатно


    • Комментарии (0):

      Информация

      Информация

        Посетители, находящиеся в группе Гости, не могут оставлять комментарии в данной новости.

        ↓ Меню




        ↓ Опрос

        Вы добавили сайт в закладки?
        Да
        Нет


        Top 10 за неделю (Книги)

        В.И. Ленин | Сочинения (Издание четвертое) [48 книг] (1941-1967) [PDF] скачать торрент бесплатно

        (просмотров: 241)
        М.С. Серов | Глобальное потепление (2010) [PDF] скачать торрент бесплатно

        (просмотров: 141)
        Дмитрий Федотов | Основы 3ds Max (2013) PCRec [H.264] скачать торрент бесплатно

        (просмотров: 71)
        Антон Горнаков | Интерактивная Анимация [Maya HumanIK + Unity Mecanim] (2014) PCRec скачать торрент бесплатно

        (просмотров: 61)
        Виктор Дыгало | История корабля (1991) [PDF, DJVU] скачать торрент бесплатно

        (просмотров: 21)
        Марина Ильинская | Без очков. Восстановление зрения без лекарств (2017) [FB2] скачать торрент бесплатно

        (просмотров: 21)
        Валентина Травинка | Рецепты бабушки Травинки (2011) [MP3] скачать торрент бесплатно

        (просмотров: 11)
        Димка Ковпак | Бизнес с Китаем за 2 месяца коучинг 16.0 [Версия PLATINUM+VIP] (2016) PCRec скачать торрент бесплатно

        (просмотров: 11)
        Н.П. Кисленко | HTML. Самое необходимое (+CD) (2008) [PDF] скачать торрент бесплатно

        (просмотров: 11)
        Александр Сергеевич Пушкин | Брак холостит душу [сборник] (2017) [FB2] скачать торрент бесплатно

        (просмотров: 11)