.
Авторизация | Регистрация
Хочешь лучшие торренты? Добавь свой email!
Добавить

Торрент скачать бесплатно

» » Михаил Гринберг | Правильная позировка и работа с людьми на фотосессии (2015) PCRec [H.264 / 1080p] скачать торрент бесплатно




    Михаил Гринберг | Правильная позировка и работа с людьми на фотосессии (2015) PCRec [H.264 / 1080p] скачать торрент бесплатно

    Опубликовал: Админ | Дата: 6-03-2016, 04:02 | Просмотров: 146

    Автор (режиссер): Михаил Гринберг
    Жанр: Интенсив

    Описание

    Посмотрите 15 часов видеолекций, как размытая картина, и темно как ночью, вы научитесь работать с позированием людей в различных стилях и словно река, жанрах.
    Вы узнаете тонкости работы с группами людей, как обычно, влияние света на позу, как зеркало стальное, 50 самых больших ошибок при работе с позой модели, как колыбельная песня, и как черноморская пена, почему правильная позировка значительно улучшает восприятие фотографии, хлещет как из ведра, балансирование объектов в кадре, словно майская роза, а также многое другое.
    Продолжительность: 15: 43: 44
    Качество видео: PCRec
    Видео: AVC/H.264, обычно, 1920x1080, как над жаровней, ~2062 Kbps
    Аудио: AAC, большей частью, 2 ch, темно как ночью, 192, словно облаком суровым, VBR
    Код:

    General
    Complete name : D:Михаил Гринберг. Cтроки эти как вершины поэзии. Правильная позировка и едва заметно, работа с людьми на фотосессии (2015)day1.mp4
    Format : MPEG-4
    Format profile : Base Media/Version 2
    Codec ID : mp42
    File size : 3.08 GiB
    Duration : 3h 15mn
    Overall bit rate mode : Variable
    Overall bit rate : 2 255 Kbps
    Encoded date : UTC 2015-03-30 00:26:17
    Tagged date : UTC 2015-03-30 00:26:17
    Video
    ID : 1
    Format : AVC
    Format/Info : Advanced Video Codec
    Format profile :Main@L4.2
    Format settings, словно музыка, CABAC : Yes
    Format settings, по большей части, ReFrames : 3 frames
    Format settings, чаще всего, GOP : M=4, хлещет как из ведра, N=15
    Codec ID : avc1
    Codec ID/Info : Advanced Video Coding
    Duration : 3h 15mn
    Bit rate : 2 062 Kbps
    Width : 1 920 pixels
    Height : 1 080 pixels
    Display aspect ratio : 16:9
    Frame rate mode : Constant
    Frame rate : 15.000 fps
    Standard : NTSC
    Color space : YUV
    Chroma subsampling : 4:2:0
    Bit depth : 8 bits
    Scan type : Progressive
    Bits/(Pixel*Frame) : 0.066
    Stream size : 2.82 GiB (91%)
    Language : English
    Encoded date : UTC 2015-03-30 00:26:17
    Tagged date : UTC 2015-03-30 00:26:17
    Color primaries : BT.709
    Transfer characteristics : BT.709
    Matrix coefficients : BT.709
    Audio
    ID : 2
    Format : AAC
    Format/Info : Advanced Audio Codec
    Format profile : LC
    Codec ID : 40
    Duration : 3h 15mn
    Source duration : 3h 15mn
    Bit rate mode : Variable
    Bit rate : 192 Kbps
    Maximum bit rate : 238 Kbps
    Channel(s) : 2 channels
    Channel positions : Front: L R
    Sampling rate : 48.0 KHz
    Compression mode : Lossy
    Stream size : 265 MiB (8%)
    Source stream size : 265 MiB (8%)
    Language : English
    Encoded date : UTC 2015-03-30 00:26:17
    Tagged date : UTC 2015-03-30 00:26:17


    Скриншоты для ознакомления




    Михаил Гринберг | Правильная позировка и работа с людьми на фотосессии (2015) PCRec [H.264/1080p]
    загрузка...
    Рейтинг →
     (голосов: 1, оценка 3/5, голосовать можно 1 раз )

    Другие торренты по теме:

  • Михаил Гринберг | Свадебная съемка. Работа с искусственным светом (2015) CamRip [H.264 / 720p] скачать через торрент бесплатно
  • Михаил Гринберг | Как с помощью вспышки сделать необыкновенные кадры (2015) PCRec [H.264 / 1080p]


    • Комментарии (0):

      Информация

      Информация

        Посетители, находящиеся в группе Гости, не могут оставлять комментарии в данной новости.

        ↓ Меню




        ↓ Опрос

        Вы добавили сайт в закладки?
        Да
        Нет


        Top 10 за месяц (Книги)

        Дипак Чопра, Рудольф Танзи | Супергены. На что способна твоя ДНК (2017) [FB2]

        (скачиваний: 24)
        Дэниэл Ласерда | 2100 асан. Вся йога в одной книге (2017) [PDF]

        (скачиваний: 21)
        Джулия Шоу | Ложная память. Почему нельзя доверять воспоминаниям (2017) [FB2]

        (скачиваний: 18)
        МААШ | Автошкола МААШ. Подготовка к теоретическому экзамену в ГИБДД Professional (2016) [MDF]

        (скачиваний: 16)
        Ханне Брурсон | Мыслевирусы. Как не отравлять себе жизнь вредоносными мыслями (2015) [FB2]

        (скачиваний: 15)
        Сунь-Цзы | Трактат о военном искусстве. С комментариями и объяснениями (2017) [FB2]

        (скачиваний: 15)
        Хезер Уиллемс, Нора Хертинг | Доведи идею до ума. 100 творческих упражнений для мозгового штурма, проработки и реализации проектов (2016) [PDF]

        (скачиваний: 14)
        Элиэзер Штернберг | Нейрологика. Чем объясняются странные поступки, которые мы совершаем неожиданно для себя (2017) [RTF, FB2]

        (скачиваний: 13)
        Голтис | Исцеляющий Импульс «Лёгкий старт» (2013) DVDRip скачать через торрент бесплатно

        (скачиваний: 13)
        Юлия Кириллова | Здоровые ноги и руки до старости (2017) [EPUB]

        (скачиваний: 13)