.
Авторизация | Регистрация
Хочешь лучшие торренты? Добавь свой email!
Добавить

Торрент скачать бесплатно

» » Andy Anderson | Adobe Photoshop CC Tutorials for Beginners (2014) PCRec [H.264] [EN] торрент скачать бесплатно




    Andy Anderson | Adobe Photoshop CC Tutorials for Beginners (2014) PCRec [H.264] [EN] торрент скачать бесплатно

    Опубликовал: Админ | Дата: 3-03-2016, 18:25 | Просмотров: 110

    Автор (режиссер): Andy Anderson
    Производство: Infinite Skills, Adobe
    Жанр: Обучающее видео, Adobe Photoshop CC
    Ссылка на курс

    Описание

    В этом учебном курсе Adobe Photoshop CC от Infinite Skills , вы узнаете , как использовать миры наиболее популярного программного обеспечения для создания графики и редактирования фотографий .
    Этот тренинг предназначен для абсолютного новичка, и вы изучите Adobe Photoshop CC с нуля, не имея предыдущего опыта. Этот учебный курс открывает особенности и в большинстве случаев инструменты Adobe Photoshop CC в легко понимаемой форме, увеличивая вашу способность понимать и сохранять информацию . Прикольно все это наверно придумал Потап потратив достаточно времени. Вы узнаете, как : организовать ваши файлы с помощью программы Adobe Bridge , работа с изображениями в Camera Raw, создавать и управлять цветом на изображении , использовать слои в Photoshop и работать с фильтрами . Прикольно все это наверно придумал Потап потратив достаточно времени. Andy Anderson показывает , как использовать различные инструменты Введите Photoshop CC.
    В течение почти 13 часов обучения в этом учебнике по Adobe Photoshop CC, вы узнаете возможно больше , чем перечисленно здесь! К тому времени, как вы завершите это обучение на основе видео для Adobe Photoshop CC , вы будете знакомы с инструментами, доступными вам в этом графическом редакторе, и как применить их к вашим собственным проектам.
    Рабочие файлы включены , что позволяет следовать за автором на протяжении уроков .
    Продолжительность: 12: 57: 11
    Качество видео: PCRec
    Язык: Английский
    Видео: AVC/H.264, 960x540 (16: 9), ~1200 Kbps
    Аудио: AAC, 2 ch, 126 Kbps, CBR
    Код:

    Общее
    Полное имя : E:TUTTORIALSPHOTOSHOP[Infinite Skills] Adobe Photoshop CC Tutorials for Beginners2. Photoshop Essentials2-01.flv
    Формат : Flash Video
    Размер файла : 10, 6 Мбайт
    Продолжительность : 1 м. 6 с.
    Общий поток : 1331 Кбит/сек
    Программа кодирования : Wistia
    Пометившая программа : Yet Another Metadata Injector for FLV - Version 2.0
    Видео
    Формат : AVC
    Формат/Информация : Advanced Video Codec
    Профиль формата :High@L3.1
    Параметр CABAC формата : Да
    Параметр ReFrames формата : 4 кадра
    Идентификатор кодека : 7
    Продолжительность : 1 м. 6 с.
    Битрейт : 1200 Кбит/сек
    Ширина : 960 пикселей
    Высота : 540 пикселей
    Соотношение сторон : 16:9
    Режим частоты кадров : Постоянный
    Частота кадров : 15, 045 кадров/сек
    Цветовое пространство : YUV
    Субдискретизация насыщенности : 4:2:0
    Битовая глубина : 8 бит
    Тип развёртки : Прогрессивная
    Бит/(Пиксели*Кадры) : 0.154
    Размер потока : 9, 54 Мбайт (90%)
    Библиотека кодирования : x264 core 142 r2491 24e4fed
    Настройки программы : cabac=1/ref=2/deblock=1:0:0/analyse=0x3:0x113/me=hex/subme=6/psy=1/psy_rd=1.00:0.00/mixed_ref=1/me_range=16/chroma_me=1/trellis=0/8x8dct=1/cqm=0/deadzone=21, 11/fast_pskip=1/chroma_qp_offset=-2/threads=12/lookahead_threads=2/sliced_threads=0/nr=0/decimate=1/interlaced=0/bluray_compat=0/constrained_intra=0/bframes=3/b_pyramid=2/b_adapt=1/b_bias=0/direct=3/weightb=1/open_gop=0/weightp=2/keyint=250/keyint_min=25/scenecut=40/intra_refresh=0/rc_lookahead=40/rc=2pass/mbtree=1/bitrate=1200/ratetol=1.0/qcomp=0.60/qpmin=10/qpmax=51/qpstep=4/cplxblur=20.0/qblur=0.5/ip_ratio=1.41/aq=1:1.00
    Аудио
    Формат : AAC
    Формат/Информация : Advanced Audio Codec
    Профиль формата : LC
    Идентификатор кодека : 10
    Продолжительность : 1 м. 6 с.
    Битрейт : 126 Кбит/сек
    Каналы : 2 канала
    Channel(s)_Original : 1 канал
    Расположение каналов : Front: C
    Частота : 44, 1 КГц
    Частота кадров : 43, 066 кадра/сек (1024 spf)
    Метод сжатия : С потерями
    Задержка видео : 87 мс.
    Размер потока : 1, 05 Мбайт (10%)


    Скриншоты для ознакомления




    Andy Anderson | Adobe Photoshop CC Tutorials for Beginners (2014) PCRec [H.264] [EN]
    загрузка...
    Рейтинг →
     (голосов: 1, оценка 5/5, голосовать можно 1 раз )

    Другие торренты по теме:

  • Andy Browser (Chromium + Tor) 3.0 Portable [Multi / Ru]
  • Andy Williams - Энди Уильямс (1979) [FLAC 2.0 24 / 192|traks(Vinyl-Rip)]<Pop> скачать через торрент бесплатно
  • Andy 46.2.53 [Ru / En]
  • Andy Timmons Band - Resolution (2006) Digipak [FLAC|Lossless|tracks] <Rock, Hard Rock>
  • Andy Timmons - 2 альбома (1999, 2002) [FLAC|Lossless|tracks] <Rock, Hard Rock, Instrumental>
  • Andy Logan & The O.C. 75s - Transistors of Mercy (2016) [MP3|320 кб / с] <Rock>
  • Andy Stott - Discography 21 Releases (2005-2016) [FLAC|Lossless|tracks+.cue, tracks ] <Techno, Bass, Grime, Ambient, Downtempo, Experimental, House, Abstract>
  • Andy Williams - The Best Of (1992) [APE|Lossless|image + .cue] <Jazz, Vocal>


    • Комментарии (0):

      Информация

      Информация

        Посетители, находящиеся в группе Гости, не могут оставлять комментарии в данной новости.

        ↓ Меню




        ↓ Опрос

        Вы добавили сайт в закладки?
        Да
        Нет


        Top 10 за месяц (Книги)

        Джиллиан Майклз | Знаменитая программа Джиллиан Майклз: Стройное и здоровое тело за 30 дней (2016) [FB2]

        (скачиваний: 62)
        И.Б. Фефилова | Антивозрастная медицина. Современная энциклопедия (2015) [PDF, EPUB]

        (скачиваний: 31)
        Михаил Диденко | Русский стиль выживания. Как остаться в живых одному в лесу (2017) [PDF, FB2]

        (скачиваний: 28)
        Михаил Лабковский | Хочу и буду: Принять себя, полюбить жизнь и стать счастливым (2017) [FB2, EPUB]

        (скачиваний: 25)
        Александр Клинге | Ленин. Самая правдивая биография Ильича (2017) [FB2, EPUB]

        (скачиваний: 23)
        Евгений Старухин | Цикл «Лесовик» [4 книги. Обновляемая] (2015-2017) [FB2]

        (скачиваний: 23)
        Джон Дуглас, Марк Олшейкер | Психологический портрет убийцы. Методики ФБР (2016) [FB2, EPUB]

        (скачиваний: 22)
        Джек Дэниелс | От 800 метров до марафона (2014) [FB2]

        (скачиваний: 22)
        Давид Дубницкий | Жанровый НЮ-портрет (2016) PCRec

        (скачиваний: 21)
        Дэвид Агус | Завтра начинается сегодня. Как воспользоваться достижениями anti-age медицины (2017) [FB2, EPUB]

        (скачиваний: 20)