.
Авторизация | Регистрация
Хочешь лучшие торренты? Добавь свой email!
Добавить

Торрент скачать бесплатно

» » Николай Ягодкин, Алиса Троицкая | Как заговорить на немецком за 3 месяца (2015) WEB-DL [H.264] скачать торрент бесплатно




    Николай Ягодкин, Алиса Троицкая | Как заговорить на немецком за 3 месяца (2015) WEB-DL [H.264] скачать торрент бесплатно

    Опубликовал: Админ | Дата: 3-03-2016, 18:25 | Просмотров: 339

    Автор (режиссер): Николай Ягодкин, как на иголках, Алиса Троицкая
    Производство: Advance club
    Жанр: Немецкий язык

    Описание

    На тренинге Вы узнаете, словно майская роза, как выучить немецкий до уровня разговора на общие темы всего за 3 месяца (уровни A1 + A2), как размытая картина, а также получите самые эффективные технологии изучения немецкого языка.
    Наверное, привычно, все вы слышали, как над жаровней, что немецкий крайне сложный язык. Ох и закинули удочки. Действительно, вертится как белка в колесе, в немецком одна из самых сложных грамматик среди всех европейских языков. Происходило это без году неделя. Однако в немецком нет никаких проблем с временами, как правило, очень простое произношение, как зеркало стальное, лёгкое письмо и словно музыка, практически нигде нет исключений.
    Продолжительность: 06: 10: 00
    Качество видео: WEB-DL
    Видео: AVC/H.264, хлещет как из ведра, 640x360-1280х544, темно как ночью, ~1363
    Аудио: AAC, словно музыка, 2 ch, словно сон, 160, едва заметно, VBR
    Код:

    General
    Complete name : C:TorrentsАлиса Троицкая - Как заговорить на немецком за 3 месяца (2015)УРОК 01ВидеоВидео 01.mp4
    Format : MPEG-4
    Format profile : Base Media/Version 2
    Codec ID : mp42
    File size : 16.7 MiB
    Duration : 1mn 31s
    Overall bit rate mode : Variable
    Overall bit rate : 1 527 Kbps
    Encoded date : UTC 2014-12-12 05:29:46
    Tagged date : UTC 2014-12-12 05:29:46
    Video
    ID : 1
    Format : AVC
    Format/Info : Advanced Video Codec
    Format profile :High@L3.1
    Format settings, как обычно, CABAC : Yes
    Format settings, как колыбельная песня, ReFrames : 4 frames
    Codec ID : avc1
    Codec ID/Info : Advanced Video Coding
    Duration : 1mn 31s
    Bit rate : 1 363 Kbps
    Width : 1 280 pixels
    Height : 544 pixels
    Display aspect ratio : 2.35:1
    Frame rate mode : Constant
    Frame rate : 25.000 fps
    Color space : YUV
    Chroma subsampling : 4:2:0
    Bit depth : 8 bits
    Scan type : Progressive
    Bits/(Pixel*Frame) : 0.078
    Stream size : 14.9 MiB (89%)
    Writing library : x264 core 142 r11 24e4fed
    Encoding settings : cabac=1/ref=3/deblock=1:0:0/analyse=0x3:0x113/me=hex/subme=7/psy=1/psy_rd=1.00:0.00/mixed_ref=1/me_range=16/chroma_me=1/trellis=1/8x8dct=1/cqm=0/deadzone=21, большей частью, 11/fast_pskip=1/chroma_qp_offset=-2/threads=48/lookahead_threads=4/sliced_threads=0/nr=0/decimate=1/interlaced=0/bluray_compat=0/stitchable=1/constrained_intra=0/bframes=3/b_pyramid=2/b_adapt=1/b_bias=0/direct=1/weightb=1/open_gop=0/weightp=2/keyint=infinite/keyint_min=25/scenecut=40/intra_refresh=0/rc_lookahead=40/rc=crf/mbtree=1/crf=20.0/qcomp=0.60/qpmin=5/qpmax=69/qpstep=4/vbv_maxrate=2750/vbv_bufsize=7500/crf_max=0.0/nal_hrd=none/filler=0/ip_ratio=1.40/aq=1:1.00
    Encoded date : UTC 2014-12-12 05:29:46
    Tagged date : UTC 2014-12-12 05:29:46
    Audio
    ID : 2
    Format : AAC
    Format/Info : Advanced Audio Codec
    Format profile : LC
    Codec ID : 40
    Duration : 1mn 31s
    Bit rate mode : Variable
    Bit rate : 160 Kbps
    Channel(s) : 2 channels
    Channel positions : Front: L R
    Sampling rate : 48.0 KHz
    Compression mode : Lossy
    Stream size : 1.75 MiB (10%)
    Encoded date : UTC 2014-12-12 05:29:46
    Tagged date : UTC 2014-12-12 05:29:46


    Скриншоты для ознакомления




    Николай Ягодкин, Алиса Троицкая | Как заговорить на немецком за 3 месяца (2015) WEB-DL [H.264]
    загрузка...
    Рейтинг →
     (голосов: 1, оценка 4/5, голосовать можно 1 раз )

    Другие торренты по теме:

  • Николай Ягодкин (Advance club) | Технологии самообучения: Научите детей учиться (2015) DVDRip [H.264] скачать через торрент бесплатно
  • Николай Ягодкин, Светлана Ахметова | Видеоурок 100 английских слов за 1 час (2015) HDRip [H.264 / 720p] скачать через торрент бесплатно
  • Николай Ягодкин | Запоминание 1000 иностранных слов за неделю (2015) [H.264] скачать через торрент бесплатно
  • Николай Ягодкин, Светлана Ахметова | Интенсив-погружение "Разговорный Английский" (2015) HDRip [H.264 / 720p] скачать через торрент бесплатно
  • Николай Ягодкин, Светлана Ахметова | Курс "Вся грамматика английского за выходные" (2015) DVDRip скачать через торрент бесплатно
  • Николай Ягодкин, Светлана Ахметова | Двухдневный курс "Технологии изучения иностранных языков" (2015) DVDRip [H.264] скачать через торрент бесплатно
  • Николай Ягодкин | Запоминание 3500 английских слов на готовых ассоциациях (2015) WEB-DL [H.264]
  • Николай Ягодкин | Технологии обучения и работы с информацией (2013) CamRip


    • Комментарии (0):

      Информация

      Информация

        Посетители, находящиеся в группе Гости, не могут оставлять комментарии в данной новости.

        ↓ Меню




        ↓ Опрос

        Вы добавили сайт в закладки?
        Да
        Нет


        Top 10 за месяц (Книги)

        Дипак Чопра, Рудольф Танзи | Супергены. На что способна твоя ДНК (2017) [FB2]

        (скачиваний: 22)
        Ханне Брурсон | Мыслевирусы. Как не отравлять себе жизнь вредоносными мыслями (2015) [FB2]

        (скачиваний: 10)
        Элиэзер Штернберг | Нейрологика. Чем объясняются странные поступки, которые мы совершаем неожиданно для себя (2017) [RTF, FB2]

        (скачиваний: 9)
        Т. Барышникова (авт.-сост.) | Школа ремонта. Опыт лучших профессионалов для домашнего мастера (2015) [PDF]

        (скачиваний: 8)
        Юрий Гейко | Легкий способ бросить дурить. За рулем (2016) [FB2]

        (скачиваний: 7)
        Эндрю Стеллман, Дженнифер Грин | Постигая Agile (2017) [FB2]

        (скачиваний: 7)
        Д. Елисеев | Рассказы о математике с примерами на языках Python и C (2017) [PDF]

        (скачиваний: 7)
        Журнал | Вопросы кибербезопасности №1 (19) (2017) [PDF]

        (скачиваний: 6)
        Анастейша Янг | Ювелирные техники. Энциклопедия (2009) [PDF]

        (скачиваний: 5)
        Журнал | Популярная механика №6 (176) (июнь 2017) [PDF]

        (скачиваний: 5)