.
Авторизация | Регистрация
Хочешь лучшие торренты? Добавь свой email!
Добавить

Торрент скачать бесплатно

» » Context Tools | Автоматизация контекстной рекламы с помощью Context Tools (2016) PCRec [H.264 / 1080p] торрент скачать бесплатно




    Context Tools | Автоматизация контекстной рекламы с помощью Context Tools (2016) PCRec [H.264 / 1080p] торрент скачать бесплатно

    Опубликовал: Админ | Дата: 3-03-2016, 18:25 | Просмотров: 104

    Автор (режиссер): Context Tools
    Жанр: Яндекс Директ, Google Adwords, Excel

    Описание

    Надстройка Context-Tools для Microsoft Excel. Эта программа создана для специалистов по контекстной рекламе, чтобы автоматизировать многие рутинные операции при создании кампаний. На данный момент программа насчитывает более 80 функций!
    Скачайте бесплатный видеокурс. Он в простой форме раскроет все возможности программы не в теории, а на реальных примерах из практики работы с контекстной рекламой.
    Продолжительность: 01: 07: 31
    Качество видео: PCRec
    Видео: AVC, 1920x1080, ~1059kbps
    Аудио: AAC, 2 ch, 128kbps, VBR
    Код:

    Полное имя : D:Автоматизация контекстной рекламы с помощью Context Tools1) Добавить-вставить текст.mp4
    Формат : MPEG-4
    Профиль формата : Base Media/Version 2
    Идентификатор кодека : mp42
    Размер файла : 14, 1 Мбайт
    Продолжительность : 1 м. 39 с.
    Режим общего битрейта : Переменный
    Общий поток : 1190 Кбит/сек
    Дата кодирования : UTC 2036-02-06 06:28:16
    Дата пометки : UTC 2036-02-06 06:28:16
    Программа кодирования : HandBrake 0.10.2 2015060900
    Идентификатор : 1
    Формат : AVC
    Формат/Информация : Advanced Video Codec
    Профиль формата : Main@L4
    Параметр CABAC формата : Да
    Параметр ReFrames формата : 4 кадра
    Идентификатор кодека : avc1
    Идентификатор кодека/Информация : Advanced Video Coding
    Продолжительность : 1 м. 39 с.
    Битрейт : 1059 Кбит/сек
    Ширина : 1920 пикселей
    Высота : 1080 пикселей
    Соотношение сторон : 16:9
    Режим частоты кадров : Постоянный
    Частота кадров : 15, 000 кадров/сек
    Цветовое пространство : YUV
    Субдискретизация насыщенности : 4:2:0
    Битовая глубина : 8 бит
    Тип развёртки : Прогрессивная
    Бит/(Пиксели*Кадры) : 0.034
    Размер потока : 12, 5 Мбайт (89%)
    Библиотека кодирования : x264 core 142 r2479 dd79a61
    Настройки программы : cabac=1/ref=1/deblock=1:0:0/analyse=0x1:0x111/me=hex/subme=2/psy=1/psy_rd=1.00:0.00/mixed_ref=0/me_range=16/chroma_me=1/trellis=0/8x8dct=0/cqm=0/deadzone=21, 11/fast_pskip=1/chroma_qp_offset=0/threads=6/lookahead_threads=2/sliced_threads=0/nr=0/decimate=1/interlaced=0/bluray_compat=0/constrained_intra=0/bframes=3/b_pyramid=2/b_adapt=1/b_bias=0/direct=1/weightb=1/open_gop=0/weightp=1/keyint=150/keyint_min=15/scenecut=40/intra_refresh=0/rc_lookahead=10/rc=crf/mbtree=1/crf=20.0/qcomp=0.60/qpmin=0/qpmax=69/qpstep=4/vbv_maxrate=20000/vbv_bufsize=25000/crf_max=0.0/nal_hrd=none/filler=0/ip_ratio=1.40/aq=1:1.00
    Дата кодирования : UTC 2036-02-06 06:28:16
    Дата пометки : UTC 2036-02-06 06:28:16
    Цветовой диапазон : Limited
    Основные цвета : BT.709
    Характеристики трансфера : BT.709
    Коэффициенты матрицы : BT.709
    Идентификатор : 2
    Формат : AAC
    Формат/Информация : Advanced Audio Codec
    Профиль формата : LC
    Идентификатор кодека : 40
    Продолжительность : 1 м. 39 с.
    Вид битрейта : Переменный
    Битрейт : 127 Кбит/сек
    Каналы : 2 канала
    Расположение каналов : Front: L R
    Частота : 44, 1 КГц
    Метод сжатия : С потерями
    Размер потока : 1, 49 Мбайт (11%)
    Заголовок : Stereo/Stereo
    Язык : English
    Дата кодирования : UTC 2036-02-06 06:28:16
    Дата пометки : UTC 2036-02-06 06:28:16


    Скриншоты для ознакомления




    Context Tools | Автоматизация контекстной рекламы с помощью Context Tools (2016) PCRec [H.264/1080p]
    загрузка...
    Рейтинг →
     (голосов: 1, оценка 3/5, голосовать можно 1 раз )

    Другие торренты по теме:

  • Easy Context Menu 1.3 Portable [Multi / Ru]
  • Easy Context menu v1.4 Portable [Multi / Ru]


    • Комментарии (0):

      Информация

      Информация

        Посетители, находящиеся в группе Гости, не могут оставлять комментарии в данной новости.

        ↓ Меню




        ↓ Опрос

        Вы добавили сайт в закладки?
        Да
        Нет


        Top 10 за месяц (Книги)