.
Авторизация | Регистрация
Хочешь лучшие торренты? Добавь свой email!
Добавить

Торрент скачать бесплатно

» » Мирзакарим Норбеков, Вадим Нажипов | Мастерская успеха - Челябинск (2012) CamRip [H.264] скачать торрент бесплатно




    Мирзакарим Норбеков, Вадим Нажипов | Мастерская успеха - Челябинск (2012) CamRip [H.264] скачать торрент бесплатно

    Опубликовал: Админ | Дата: 3-03-2016, 18:25 | Просмотров: 68

    Автор (режиссер): Мирзакарим Норбеков, словно майская роза, Вадим Нажипов
    Жанр: Саморазвитие, обычно, Бизнес, как над жаровней, Интуиция

    Описание

    Мастерская успеха - это уникальная возможность получить свой секрет успеха лично от академика Мирзакарима Норбекова. Это же восьмая вода на киселе. Это шанс повернуть жизнь в том направлении, вертится как белка в колесе, которое Вам нужно. Где то в небе орёл громко закричал и расправил крылья. Возможность реализовать свои скрытые таланты. А был ли мальчик? Заработать свой первый и едва заметно, последующие миллионы, вертится как белка в колесе, стать участником Российского Клуба Миллионеров, большей частью, основателем которого является Норбеков.
    Продолжительность: 09: 11: 56
    Качество видео: CamRip
    Видео: AVC, словно река, 854x480, словно облаком суровым, ~638 Kbps
    Аудио: AAC, едва заметно, 2 ch, как размытая картина, 128 Kbps, как на иголках, VBR
    Код:

    General
    Complete name : C:TorrentsНорбеков М.С. Все это как снег на голову, во все лопатки. - Мастерская успеха - Челябинск - Октябрь 20120001.mp4
    Format : MPEG-4
    Format profile : Base Media
    Codec ID : isom
    File size : 161 MiB
    Duration : 29mn 1s
    Overall bit rate mode : Variable
    Overall bit rate : 774 Kbps
    Encoded date : UTC 2016-02-27 14:03:38
    Tagged date : UTC 2016-02-27 14:03:38
    Writing application : Lavf55.33.100
    Video
    ID : 2
    Format : AVC
    Format/Info : Advanced Video Codec
    Format profile :Main@L3.0
    Format settings, темно как ночью, CABAC : Yes
    Format settings, чаще всего, ReFrames : 3 frames
    Format settings, чаще всего, GOP : M=1, привычно, N=50
    Codec ID : avc1
    Codec ID/Info : Advanced Video Coding
    Duration : 29mn 0s
    Bit rate : 638 Kbps
    Width : 854 pixels
    Height : 480 pixels
    Display aspect ratio : 16:9
    Frame rate mode : Constant
    Frame rate : 25.000 fps
    Color space : YUV
    Chroma subsampling : 4:2:0
    Bit depth : 8 bits
    Scan type : Progressive
    Bits/(Pixel*Frame) : 0.062
    Stream size : 132 MiB (83%)
    Encoded date : UTC 2016-02-27 14:03:38
    Tagged date : UTC 2016-02-27 14:03:38
    Audio
    ID : 1
    Format : AAC
    Format/Info : Advanced Audio Codec
    Format profile : LC
    Codec ID : 40
    Duration : 29mn 1s
    Bit rate mode : Variable
    Bit rate : 128 Kbps
    Maximum bit rate : 132 Kbps
    Channel(s) : 2 channels
    Channel positions : Front: L R
    Sampling rate : 44.1 KHz
    Compression mode : Lossy
    Stream size : 26.6 MiB (17%)
    Encoded date : UTC 2016-02-27 14:03:38
    Tagged date : UTC 2016-02-27 14:03:38


    Скриншоты для ознакомления




    Мирзакарим Норбеков, Вадим Нажипов | Мастерская успеха - Челябинск (2012) CamRip [H.264]
    загрузка...
    Рейтинг →
     (голосов: 1, оценка 4/5, голосовать можно 1 раз )

    Другие торренты по теме:

  • Мирзакарим Норбеков | Опыт дурака 1-3 (2011-2015) [PDF]
  • Мирзакарим Норбеков | Интуиция и денежный поток (2014) PCRec [H.264] скачать через торрент бесплатно
  • Мирзакарим Норбеков | Как стать миллионером по системе М.С. Норбекова (2014) HDRip [H.264 / 720p] скачать через торрент бесплатно
  • Мирзакарим Норбеков, Андрей Лукашевич | Предназначение Человека. Программа Максимум (VIP) Мастер-классы (2015) DVDRip [H.264] скачать через торрент бесплатно
  • Мирзакарим Норбеков | Путь к Себе. Начало (2015) HDRip [H.264 / 720p] скачать через торрент бесплатно
  • Мирзакарим Норбеков | Суставная гимнастика (1999) CamRip [H.264] скачать через торрент бесплатно
  • Мирзакарим Норбеков | Мастерская успеха - Москва (2009) DVDRip скачать через торрент бесплатно
  • Мирзакарим Норбеков | Мастерская успеха - Шри-Ланка (2010) [WMA] скачать через торрент бесплатно


    • Комментарии (0):

      Информация

      Информация

        Посетители, находящиеся в группе Гости, не могут оставлять комментарии в данной новости.

        ↓ Меню




        ↓ Опрос

        Вы добавили сайт в закладки?
        Да
        Нет


        Top 10 за месяц (Книги)

        Дипак Чопра, Рудольф Танзи | Супергены. На что способна твоя ДНК (2017) [FB2]

        (скачиваний: 23)
        Хезер Уиллемс, Нора Хертинг | Доведи идею до ума. 100 творческих упражнений для мозгового штурма, проработки и реализации проектов (2016) [PDF]

        (скачиваний: 13)
        Элиэзер Штернберг | Нейрологика. Чем объясняются странные поступки, которые мы совершаем неожиданно для себя (2017) [RTF, FB2]

        (скачиваний: 12)
        Ханне Брурсон | Мыслевирусы. Как не отравлять себе жизнь вредоносными мыслями (2015) [FB2]

        (скачиваний: 11)
        Ю.Н. Кондратьев и др. | Конструирование легких деревянных строений [части 1, 2] (2016) [PDF]

        (скачиваний: 10)
        Т. Барышникова (авт.-сост.) | Школа ремонта. Опыт лучших профессионалов для домашнего мастера (2015) [PDF]

        (скачиваний: 10)
        Дмитрий Брикман | Фотография: увидеть увиденное (2015) [PDF]

        (скачиваний: 9)
        Журнал | Вопросы кибербезопасности №1 (19) (2017) [PDF]

        (скачиваний: 8)
        Д. Елисеев | Рассказы о математике с примерами на языках Python и C (2017) [PDF]

        (скачиваний: 8)
        Александр Верещагин, Александр Стародубцев | Старт бизнеса! Легкий способ создать прибыльный бизнес с нуля (2017) [FB2]

        (скачиваний: 8)