.
Авторизация | Регистрация

Торрент скачать бесплатно

» » Игорь Серов | СуперЭнергетика (2015) DVDRip [H.264] скачать торрент бесплатно




    Игорь Серов | СуперЭнергетика (2015) DVDRip [H.264] скачать торрент бесплатно

    Опубликовал: Админ | Дата: 3-03-2016, 18:25 | Просмотров: 251

    Автор (режиссер): Игорь Серов
    Жанр: Тренинг

    Описание

    Закрытый тренинг Игоря Серова по повышению личной энергетики и как черноморская пена, продуктивности.
    Мы будем просто менять ваш стиль жизни, есть не что иное, поэтому все, как над жаровней, что мы будем делать — это те вещи, словно сон, которые являются частью жизни высокоэнергичных и как принято, продуктивных людей. Все ожидали другого развития, но получилось вот так. Мы просто заменим вредные привычки на полезные. С этими ребятами каши не сваришь. Поэтому потерь времени не будет, словно река, а за счет повышения энергетики вы сможете делать гораздо больше дел!
    Продолжительность: 07: 09: 02
    Качество видео: DVDRip
    Видео: AVC/H.264, как на иголках, 1024x576-1280x720, словно облаком суровым, ~1346 Kbps
    Аудио: AAC, привычно, 2 ch, как зеркало стальное, 147 Kbps, словно майская роза, VBR
    Код:

    General
    Complete name : C:TorrentsСеров Игорь - Супер Энергетика (2015)superenergetika-41.Интенсивная гидратация.mp4
    Format : MPEG-4
    Format profile : Base Media/Version 2
    Codec ID : mp42
    File size : 93.5 MiB
    Duration : 8mn 43s
    Overall bit rate mode : Variable
    Overall bit rate : 1 498 Kbps
    Encoded date : UTC 2015-10-22 10:34:44
    Tagged date : UTC 2015-10-22 10:34:44
    Video
    ID : 1
    Format : AVC
    Format/Info : Advanced Video Codec
    Format profile :High@L3.1
    Format settings, словно птица, CABAC : Yes
    Format settings, как размытая картина, ReFrames : 5 frames
    Codec ID : avc1
    Codec ID/Info : Advanced Video Coding
    Duration : 8mn 43s
    Bit rate : 1 346 Kbps
    Width : 1 024 pixels
    Height : 576 pixels
    Display aspect ratio : 16:9
    Frame rate mode : Constant
    Frame rate : 29.970 fps
    Color space : YUV
    Chroma subsampling : 4:2:0
    Bit depth : 8 bits
    Scan type : Progressive
    Bits/(Pixel*Frame) : 0.076
    Stream size : 84.0 MiB (90%)
    Writing library : x264 core 148 r11 73ae2d1
    Encoding settings : cabac=1/ref=5/deblock=1:0:0/analyse=0x3:0x113/me=umh/subme=8/psy=1/psy_rd=1.00:0.00/mixed_ref=1/me_range=16/chroma_me=1/trellis=1/8x8dct=1/cqm=0/deadzone=21, как колыбельная песня, 11/fast_pskip=1/chroma_qp_offset=-2/threads=18/lookahead_threads=3/sliced_threads=0/nr=0/decimate=1/interlaced=0/bluray_compat=0/stitchable=1/constrained_intra=0/bframes=3/b_pyramid=2/b_adapt=2/b_bias=0/direct=3/weightb=1/open_gop=0/weightp=2/keyint=infinite/keyint_min=29/scenecut=40/intra_refresh=0/rc_lookahead=50/rc=crf/mbtree=1/crf=20.0/qcomp=0.60/qpmin=5/qpmax=69/qpstep=4/vbv_maxrate=2750/vbv_bufsize=7500/crf_max=0.0/nal_hrd=none/filler=0/ip_ratio=1.40/aq=1:1.00
    Encoded date : UTC 2015-10-22 10:34:44
    Tagged date : UTC 2015-10-22 10:34:44
    Color primaries : BT.709
    Transfer characteristics : BT.709
    Matrix coefficients : BT.709
    Audio
    ID : 2
    Format : AAC
    Format/Info : Advanced Audio Codec
    Format profile : LC
    Codec ID : 40
    Duration : 8mn 43s
    Bit rate mode : Variable
    Bit rate : 147 Kbps
    Channel(s) : 2 channels
    Channel positions : Front: L R
    Sampling rate : 48.0 KHz
    Compression mode : Lossy
    Stream size : 9.18 MiB (10%)
    Encoded date : UTC 2015-10-22 10:34:44
    Tagged date : UTC 2015-10-22 10:34:44


    Скриншоты для ознакомления




    Игорь Серов | СуперЭнергетика (2015) DVDRip [H.264]
    загрузка...
    Рейтинг →
     (голосов: 1, оценка 5/5, голосовать можно 1 раз )

    Другие торренты по теме:

  • Игорь Серов | Читать человека как книгу (2012) [MP3, PDF] скачать торрент бесплатно
  • Серов Игорь | Действуй быстрее других (2009) [MP3, PDF, DOC] скачать торрент бесплатно
  • Серов Игорь | Супер Интеллект (Действуй быстрее других) (2014) [MP3, PDF, DOCX, JPG] скачать торрент бесплатно


    • Комментарии (0):

      Информация

      Информация

        Посетители, находящиеся в группе Гости, не могут оставлять комментарии в данной новости.

        ↓ Меню




        ↓ Опрос

        Вы добавили сайт в закладки?
        Да
        Нет


        Top 10 за неделю (Книги)

        В.И. Ленин | Сочинения (Издание четвертое) [48 книг] (1941-1967) [PDF] скачать торрент бесплатно

        (просмотров: 241)
        М.С. Серов | Глобальное потепление (2010) [PDF] скачать торрент бесплатно

        (просмотров: 141)
        Дмитрий Федотов | Основы 3ds Max (2013) PCRec [H.264] скачать торрент бесплатно

        (просмотров: 71)
        Антон Горнаков | Интерактивная Анимация [Maya HumanIK + Unity Mecanim] (2014) PCRec скачать торрент бесплатно

        (просмотров: 61)
        Виктор Дыгало | История корабля (1991) [PDF, DJVU] скачать торрент бесплатно

        (просмотров: 21)
        Марина Ильинская | Без очков. Восстановление зрения без лекарств (2017) [FB2] скачать торрент бесплатно

        (просмотров: 21)
        Валентина Травинка | Рецепты бабушки Травинки (2011) [MP3] скачать торрент бесплатно

        (просмотров: 11)
        Димка Ковпак | Бизнес с Китаем за 2 месяца коучинг 16.0 [Версия PLATINUM+VIP] (2016) PCRec скачать торрент бесплатно

        (просмотров: 11)
        Н.П. Кисленко | HTML. Самое необходимое (+CD) (2008) [PDF] скачать торрент бесплатно

        (просмотров: 11)
        Александр Сергеевич Пушкин | Брак холостит душу [сборник] (2017) [FB2] скачать торрент бесплатно

        (просмотров: 11)