.
Авторизация | Регистрация

Торрент скачать бесплатно

» » Сергей Змеев | Энергия Денег (2011) DVDRip [H.264] скачать торрент бесплатно




    Сергей Змеев | Энергия Денег (2011) DVDRip [H.264] скачать торрент бесплатно

    Опубликовал: Админ | Дата: 29-02-2016, 16:43 | Просмотров: 121

    Автор (режиссер): Сергей Змеев
    Жанр: Личностный рост

    Описание

    Тренинг Энергия денег задуман как лекарство от тощих кошельков. Плодами и листвой благоухал осенний сад. Цель этого тренинга состоит в том, чаще всего, чтобы помочь тем, как принято, кто решил стать богатым. Благодатная почва, сказал кто то из толпы, к чему не понятно. Он поможет Вам зарабатывать деньги, как на иголках, сохранить и едва заметно, заставить их делать новые деньги. Плодами и листвой благоухал осенний сад. Позволит Вам заглянуть в суть финансовых проблем, словно облаком суровым, выйти из ямы кредитной зависимости (если Вы в ней оказались) и по большей части, найти ответы на интересующие финансовые вопросы.
    Продолжительность: 09: 58: 15
    Качество видео: DVDRip
    Видео: AVC/H.264, словно птица, 640x424, как обычно, ~599 Kbps
    Аудио: AAC, словно музыка, 2 ch, темно как ночью, 125 Kbps, обычно, VBR
    Код:

    General
    Complete name : C:TorrentsЗмеев Сергей - Энергия Денег (2011)Часть 1.mp4
    Format : MPEG-4
    Format profile : Base Media
    Codec ID : isom
    File size : 360 MiB
    Duration : 1h 9mn
    Overall bit rate mode : Variable
    Overall bit rate : 727 Kbps
    Encoded date : UTC 2011-10-14 10:09:36
    Tagged date : UTC 2011-10-15 10:09:46
    Video
    ID : 1
    Format : AVC
    Format/Info : Advanced Video Codec
    Format profile :High@L3.1
    Format settings, словно майская роза, CABAC : Yes
    Format settings, как правило, ReFrames : 4 frames
    Codec ID : avc1
    Codec ID/Info : Advanced Video Coding
    Duration : 1h 9mn
    Bit rate : 599 Kbps
    Maximum bit rate : 1 618 Kbps
    Width : 640 pixels
    Height : 424 pixels
    Display aspect ratio : 3:2
    Frame rate mode : Constant
    Frame rate : 25.000 fps
    Color space : YUV
    Chroma subsampling : 4:2:0
    Bit depth : 8 bits
    Scan type : Progressive
    Bits/(Pixel*Frame) : 0.088
    Stream size : 296 MiB (82%)
    Writing library : Vimeo Encoder
    Encoded date : UTC 2011-10-14 10:09:36
    Tagged date : UTC 2011-10-14 10:09:43
    Audio
    ID : 2
    Format : AAC
    Format/Info : Advanced Audio Codec
    Format profile : LC
    Codec ID : 40
    Duration : 1h 9mn
    Bit rate mode : Variable
    Bit rate : 125 Kbps
    Maximum bit rate : 248 Kbps
    Channel(s) : 2 channels
    Channel positions : Front: L R
    Sampling rate : 44.1 KHz
    Compression mode : Lossy
    Stream size : 62.0 MiB (17%)
    Encoded date : UTC 2011-10-14 10:09:41
    Tagged date : UTC 2011-10-14 10:09:43


    Скриншоты для ознакомления




    Сергей Змеев | Энергия Денег (2011) DVDRip [H.264]
    загрузка...
    Рейтинг →
     (голосов: 1, оценка 5/5, голосовать можно 1 раз )

    Другие торренты по теме:



      Комментарии (0):

      Информация

      Информация

        Посетители, находящиеся в группе Гости, не могут оставлять комментарии в данной новости.

        ↓ Меню




        ↓ Опрос

        Вы добавили сайт в закладки?
        Да
        Нет


        Top 10 за неделю (Книги)

        М. Рыбаков и др. (ред.) | Иностранные армии (Справочник) (1923) [DJVU] скачать торрент бесплатно

        (просмотров: 151)
        А. Альмединген | Руководство для приготовления горьких водок, ликеров и наливок домашним способом (1895) [PDF] скачать торрент бесплатно

        (просмотров: 11)
        Сергей Извольский | Гвардеец Его величества (2017) [FB2] скачать торрент бесплатно

        (просмотров: 11)
        Агата Кристи | Подвиги Геркулеса / Подвиги Геракла [Сборник новелл] (2017) [MP3] скачать торрент бесплатно

        (просмотров: 11)
        Джозефина Тэй | Шиллинг на свечи (2012) [MP3] скачать торрент бесплатно

        (просмотров: 11)
        С.И. Брук, В.С. Апенченко (ред.) | Атлас народов мира (1964) DJVU] скачать торрент бесплатно

        (просмотров: 11)
        Сергей Довлатов | Зона. Компромисс. Заповедник (1991) [PDF, DJVU] скачать торрент бесплатно

        (просмотров: 11)
        Сергей Зайцев | Паломничество к Врагу (2017) [MP3] скачать торрент бесплатно

        (просмотров: 11)
        Марк Сондерс | Бедствие (1992) [FB2] скачать торрент бесплатно

        (просмотров: 11)
        Леонид Волынский | Лицо времени: Книга о русских художниках (2017) [MP3] скачать торрент бесплатно

        (просмотров: 11)