.
Авторизация | Регистрация
Хочешь лучшие торренты? Добавь свой email!
Добавить

Торрент скачать бесплатно

» » Сергей Змеев | Магия архетипов (2012) DVDRip [H.264] скачать торрент бесплатно




    Сергей Змеев | Магия архетипов (2012) DVDRip [H.264] скачать торрент бесплатно

    Опубликовал: Админ | Дата: 29-02-2016, 16:43 | Просмотров: 94

    Автор (режиссер): Сергей Змеев
    Жанр: Личностный рост

    Описание

    Не важно как произошел человек, словно музыка, от обезьян или инопланетян. Самое интересное в это истории, что об этом Папа Римский ничего не знал. Важно другое, словно облаком суровым, мы оказались здесь и темно как ночью, сейчас. О таком странном сюжете не догадывалась даже Анастасия Стоцкая. И жить и привычно, решать свои проблемы нужно в реальном Мире! И тут есть тайна из глубины времен… Архетипы – это глубинные образы, как принято, встроенные в подсознание и словно облаком суровым, влияющие на наше поведение! Это ключ управления нашей жизнью! Эмоции, словно река, страхи, как на иголках, воля, словно майская роза, достижения… Деньги, чаще всего, наконец… Всё там! Научитесь управлять архетипами, обычно, узнайте секрет невидимого влияния и едва заметно, сделайте свой шаг к Счастью!
    Продолжительность: 09: 57: 14
    Качество видео: DVDRip
    Видео: AVC/H.264, как обычно, 640x360, есть не что иное, ~599 Kbps
    Аудио: AAC, как зеркало стальное, 2 ch, едва заметно, 110 Kbps, по большей части, VBR
    Код:

    General
    Complete name : C:TorrentsЗмеев Сергей - Магия архетипов (2012)1. В воздухе пахло весной. Модуль 1 - Блок 1.mp4
    Format : MPEG-4
    Format profile : Base Media
    Codec ID : isom
    File size : 258 MiB
    Duration : 50mn 34s
    Overall bit rate mode : Variable
    Overall bit rate : 712 Kbps
    Encoded date : UTC 2012-05-26 22:29:32
    Tagged date : UTC 2012-05-27 22:29:49
    Video
    ID : 1
    Format : AVC
    Format/Info : Advanced Video Codec
    Format profile :High@L3.1
    Format settings, как над жаровней, CABAC : Yes
    Format settings, большей частью, ReFrames : 4 frames
    Codec ID : avc1
    Codec ID/Info : Advanced Video Coding
    Duration : 50mn 34s
    Bit rate : 599 Kbps
    Maximum bit rate : 1 765 Kbps
    Width : 640 pixels
    Height : 360 pixels
    Display aspect ratio : 16:9
    Frame rate mode : Constant
    Frame rate : 30.000 fps
    Color space : YUV
    Chroma subsampling : 4:2:0
    Bit depth : 8 bits
    Scan type : Progressive
    Bits/(Pixel*Frame) : 0.087
    Stream size : 217 MiB (84%)
    Writing library : Vimeo Encoder
    Encoded date : UTC 2012-05-26 22:29:32
    Tagged date : UTC 2012-05-26 22:29:47
    Audio
    ID : 2
    Format : AAC
    Format/Info : Advanced Audio Codec
    Format profile : LC
    Codec ID : 40
    Duration : 50mn 34s
    Bit rate mode : Variable
    Bit rate : 110 Kbps
    Maximum bit rate : 165 Kbps
    Channel(s) : 2 channels
    Channel positions : Front: L R
    Sampling rate : 44.1 KHz
    Compression mode : Lossy
    Stream size : 39.6 MiB (15%)
    Encoded date : UTC 2012-05-26 22:29:40
    Tagged date : UTC 2012-05-26 22:29:47


    Скриншоты для ознакомления




    Сергей Змеев | Магия архетипов (2012) DVDRip [H.264]
    загрузка...
    Рейтинг →
     (голосов: 1, оценка 5/5, голосовать можно 1 раз )

    Другие торренты по теме:

  • Сергей Змеев | Хозяин Судьбы 3.0 (2011) CamRip [H.264]
  • Сергей Змеев | Интуиция (2012) DVDRip [H.264]
  • Сергей Змеев | Хозяин Судьбы 20.12 (2012) DVDRip [H.264]
  • Сергей Змеев | Большая Бизнес Игра (2013) DVDRip [H.264]
  • Сергей Змеев | Тайная Власть Денег (Сборник, 5 шт.) (2011-2013) DVDRip [H.264]
  • Сергей Змеев, Вера Семёнова | Риэлтор-Миллионер (2013) HDRip [H.264 / 720p]
  • Сергей Змеев | Энергия Денег (2011) DVDRip [H.264]
  • Сергей Змеев | Метапсихология Денег. Принцип Миллионера (2012) HDRip [H.264 / 720p]


    • Комментарии (0):

      Информация

      Информация

        Посетители, находящиеся в группе Гости, не могут оставлять комментарии в данной новости.

        ↓ Меню




        ↓ Опрос

        Вы добавили сайт в закладки?
        Да
        Нет


        Top 10 за месяц (Книги)