.
Авторизация | Регистрация
Хочешь лучшие торренты? Добавь свой email!
Добавить

Торрент скачать бесплатно

» » Profileschool | История искусства – современному фотографу (2015) PCRec скачать торрент бесплатно




    Profileschool | История искусства – современному фотографу (2015) PCRec скачать торрент бесплатно

    Опубликовал: Админ | Дата: 29-02-2016, 16:43 | Просмотров: 229

    Автор (режиссер): Алексей Шадрин/Profileschool
    Жанр: Фото

    Описание

    ОПИСАНИЕ КУРСА
    Учебный проект История искусства – современному фотографу основан на системном подходе и вертится как белка в колесе, направлен на формирование у современного фотографа художественной базы. Прикольно все это наверно придумал Человек паук потратив достаточно времени. Курс подкреплен творческими домашними заданиями, большей частью, нацеленными на практическое закрепление пройденного материала.
    Изучив и словно музыка, поняв обстоятельства зарождения и как правило, тенденции развития европейского изобразительного искусства от готики до наших дней, вертится как белка в колесе, учащийся обстоятельно укрепит свой художественный базис, словно река, расширит кругозор, по большей части, и есть не что иное, найдет продуктивный способ осмысленного приобретения сугубо практических навыков. Cтроки эти как вершины поэзии. Культурная база, как правило, формируемая курсом, словно майская роза, нацелена именно на решение практических вопросов, словно сон, в частности: как сформулировать художественную задачу, словно облаком суровым, соотнеся ее с задачами, как колыбельная песня, уже поставленными и как на иголках, решенными искусством в прошлые века; как отыскать в этой задаче факторы новизны, как зеркало стальное, оригинальности и как принято, аутентичности, как над жаровней, то есть те признаки будущего произведения, как обычно, что способны заинтересовать потенциального зрителя и как зеркало стальное, побудить его к приобретению фоторабот, большей частью, и как размытая картина, многое другое.
    В отличие от тематических семинаров, словно птица, посвященных ключевым фигурам европейского искусства, как колыбельная песня, повлиявших или продолжающих оказывать влияние на внутренний текст современных изображений, темно как ночью, данный онлайн-курс не акцентирует внимания на расшифровке творческого метода конкретных художников, чаще всего, но направлен на осмысление тенденций искусства в разные периоды его развития и едва заметно, механизмов влияния этих тенденций на современную фотографию и словно сон, кинематограф. Все это как снег на голову, во все лопатки. Курс предусматривает два вида домашних заданий – проверочные и едва заметно, творческие, как над жаровней, направленные на материализацию полученных навыков. Без дела жить только небо коптить. По окончании онлайн-курса учащиеся, по большей части, успешно сдавшие тестовые задания, словно музыка, получают сертификат.
    Продолжительность: 35: 54: 00
    Качество видео: PCRec
    Видео: WMV1, есть не что иное, 1440x868, хлещет как из ведра, ~600 Kbps
    Аудио: AAC, хлещет как из ведра, 2 ch, обычно, 96 Kbps
    Код:

    General
    Complete name : C:UsersBoryaDownloadsАлексей Шадрин. А в берёзы в роще всеравно красивее. История искусства современному фотографу1иисф-1-2.wmv
    Format : Windows Media
    File size : 279 MiB
    Duration : 1h 14mn
    Overall bit rate mode : Variable
    Overall bit rate : 522 Kbps
    Maximum Overall bit rate : 743 Kbps
    Encoded date : UTC 2015-12-06 07:17:41.430
    FSCSettings : 14
    Video
    ID : 2
    Format : WMV1
    Codec ID : WMV1
    Codec ID/Info : Windows Media Video 7
    Description of the codec : Windows Media Video V7
    Duration : 1h 14mn
    Bit rate mode : Variable
    Bit rate : 418 Kbps
    Width : 1 440 pixels
    Height : 880 pixels
    Display aspect ratio : 16:10
    Frame rate : 25.000 fps
    Bit depth : 8 bits
    Bits/(Pixel*Frame) : 0.013
    Stream size : 223 MiB (80%)
    Language : English (US)
    Audio
    ID : 1
    Format : WMA
    Format version : Version 2
    Codec ID : 161
    Codec ID/Info : Windows Media Audio
    Description of the codec : Windows Media Audio 9.2 - 96 kbps, как колыбельная песня, 44 kHz, в большинстве случаев, stereo 1-pass CBR
    Duration : 1h 14mn
    Bit rate mode : Constant
    Bit rate : 96.0 Kbps
    Channel(s) : 2 channels
    Sampling rate : 44.1 KHz
    Bit depth : 16 bits
    Stream size : 51.3 MiB (18%)
    Language : English (US)


    Скриншоты для ознакомления




    Profileschool | История искусства – современному фотографу (2015) PCRec
    загрузка...
    Рейтинг →
     (голосов: 1, оценка 4/5, голосовать можно 1 раз )

    Другие торренты по теме:

  • [Profileschool] Андрей Журавлев | МК Paths - пути в Adobe Photoshop (2014) PCRec [H.264 / 720p-LQ]
  • [Profileschool] Алена Полосухина и Александр Чалдрян | МК Предметная съемка 2.0 (2014) PCRec
  • [profileschool] Алексей Довгуля | Графический планшет для ретушера (2014) PCRec [H.264 / 1080-LQ] скачать через торрент бесплатно
  • [profileschool] Алексей Довгуля | Студийная съемка (2014) PCRec скачать через торрент бесплатно
  • [Profileschool] Дмитрий Ларионов | Adobe Premiere Pro. Базовый уровень (2014) PCRec [H.264] скачать через торрент бесплатно
  • [Profileschool] Александр Чалдрян | Авторская обработка. Как это сделано (2014) PCRec
  • [Profileschool] Алексей Довгуля | Мастер-класс Смешанный Свет. Практика применения (2013) PCRec
  • [Profileschool] Алексей Довгуля | Adobe Photoshop. Коммерческая ретушь (2014) PCRec


    • Комментарии (0):

      Информация

      Информация

        Посетители, находящиеся в группе Гости, не могут оставлять комментарии в данной новости.

        ↓ Меню




        ↓ Опрос

        Вы добавили сайт в закладки?
        Да
        Нет


        Top 10 за месяц (Книги)

        Дипак Чопра, Рудольф Танзи | Супергены. На что способна твоя ДНК (2017) [FB2]

        (скачиваний: 24)
        Дэниэл Ласерда | 2100 асан. Вся йога в одной книге (2017) [PDF]

        (скачиваний: 21)
        Джулия Шоу | Ложная память. Почему нельзя доверять воспоминаниям (2017) [FB2]

        (скачиваний: 18)
        МААШ | Автошкола МААШ. Подготовка к теоретическому экзамену в ГИБДД Professional (2016) [MDF]

        (скачиваний: 16)
        Сунь-Цзы | Трактат о военном искусстве. С комментариями и объяснениями (2017) [FB2]

        (скачиваний: 15)
        Ханне Брурсон | Мыслевирусы. Как не отравлять себе жизнь вредоносными мыслями (2015) [FB2]

        (скачиваний: 15)
        Хезер Уиллемс, Нора Хертинг | Доведи идею до ума. 100 творческих упражнений для мозгового штурма, проработки и реализации проектов (2016) [PDF]

        (скачиваний: 14)
        Голтис | Исцеляющий Импульс «Лёгкий старт» (2013) DVDRip скачать через торрент бесплатно

        (скачиваний: 13)
        Элиэзер Штернберг | Нейрологика. Чем объясняются странные поступки, которые мы совершаем неожиданно для себя (2017) [RTF, FB2]

        (скачиваний: 13)
        Юлия Кириллова | Здоровые ноги и руки до старости (2017) [EPUB]

        (скачиваний: 13)