.
Авторизация | Регистрация
Хочешь лучшие торренты? Добавь свой email!
Добавить

Торрент скачать бесплатно

» » Вера Шварцбург | Как снять крутой портрет (2016) PCRec [H.264 / 720p] торрент скачать бесплатно




    Вера Шварцбург | Как снять крутой портрет (2016) PCRec [H.264 / 720p] торрент скачать бесплатно

    Опубликовал: Админ | Дата: 26-02-2016, 04:03 | Просмотров: 91

    Автор (режиссер): Вера Шварцбург
    Жанр: Обучение фотографии

    Описание

    Важные базовые знания, которые я даю вам в моём курсе
    Как снять крутой портрет
    позволят вам работать с камерой, моделью, светом и композицией грамотно и правильно, а это – первый шаг к будущему успеху.
    Конечно, само по себе наличие этого курса на вашем жёстком диске не поможет вам стать классным фотографом.
    Вам нужно вдумчиво посмотреть уроки и ежедневно применять новые знания в своей работе.
    ЧТО ВЫ УЗНАЕТЕ ИЗ МОЕГО КУРСА:
    Какие виды освещения используются в фотографии, и как правильно осветить человека, чтобы портрет получился наиболее удачным;
    Как выстроить грамотную композицию, которая будет цеплять взгляд;
    Как настроить фотоаппарат под себя так, чтобы добиваться максимально качественного результата;
    Как работать с цветом, чтобы ваши фотографии были ещё более выразительными;
    Как добиться от модели правильных эмоций;
    Как выбрать самое лучшее время для съёмки;
    и многое многое другое.
    Продолжительность: 03: 05: 09
    Качество видео: PCRec
    Видео: AVC/H.264, 1280x720, ~578Kbps
    Аудио: AAC, 2 ch, 112Kbps
    Код:

    General
    Format : MPEG-4
    Format profile : Base Media/Version 2
    Codec ID : mp42 (mp41/mp42/isom)
    File size : 30.5 MiB
    Duration : 6mn 14s
    Overall bit rate : 683 Kbps
    Movie name : 1 urok
    Encoded date : UTC 2015-11-04 11:32:40
    Tagged date : UTC 2015-11-04 11:33:51
    Video #2
    ID : 2
    Format : AVC
    Format/Info : Advanced Video Codec
    Format profile :Main@L3.1
    Format settings, CABAC : No
    Format settings, ReFrames : 2 frames
    Format settings, GOP : M=2, N=30
    Codec ID : avc1
    Codec ID/Info : Advanced Video Coding
    Duration : 6mn 14s
    Bit rate : 578 Kbps
    Width : 1 280 pixels
    Height : 720 pixels
    Display aspect ratio : 16:9
    Frame rate mode : Constant
    Frame rate : 15.000 fps
    Color space : YUV
    Chroma subsampling : 4:2:0
    Bit depth : 8 bits
    Scan type : Progressive
    Bits/(Pixel*Frame) : 0.042
    Stream size : 25.8 MiB (85%)
    Title : Core Media Video
    Encoded date : UTC 2015-11-04 11:32:40
    Tagged date : UTC 2015-11-04 11:33:51
    Color range : Limited
    Color primaries : BT.709
    Transfer characteristics : BT.709
    Matrix coefficients : BT.709
    Audio #1
    ID : 1
    Format : AAC
    Format/Info : Advanced Audio Codec
    Format profile : LC
    Codec ID : 40
    Duration : 6mn 14s
    Bit rate mode : Constant
    Bit rate : 101 Kbps
    Nominal bit rate : 112 Kbps
    Channel(s) : 2 channels
    Channel positions : Front: L R
    Sampling rate : 48.0 KHz
    Frame rate : 46.875 fps (1024 spf)
    Compression mode : Lossy
    Stream size : 4.53 MiB (15%)
    Title : Core Media Audio
    Language : Russian
    Encoded date : UTC 2015-11-04 11:32:40
    Tagged date : UTC 2015-11-04 11:33:51


    Скриншоты для ознакомления




    Вера Шварцбург | Как снять крутой портрет (2016) PCRec [H.264/720p]
    загрузка...
    Рейтинг →
     (голосов: 1, оценка 3/5, голосовать можно 1 раз )

    Другие торренты по теме:

  • Вера Шварцбург | Практический курс ретуши (2016) PCRec [H.264 / 720p]
  • Вера Шварцбург | Идеальный цвет в фотографии (2016) PCRec [H.264 / 720p]


    • Комментарии (0):

      Информация

      Информация

        Посетители, находящиеся в группе Гости, не могут оставлять комментарии в данной новости.

        ↓ Меню




        ↓ Опрос

        Вы добавили сайт в закладки?
        Да
        Нет


        Top 10 за месяц (Книги)