.
Авторизация | Регистрация
Хочешь лучшие торренты? Добавь свой email!
Добавить

Торрент скачать бесплатно

» » Вера Шварцбург | Идеальный цвет в фотографии (2016) PCRec [H.264 / 720p] скачать торрент бесплатно




    Вера Шварцбург | Идеальный цвет в фотографии (2016) PCRec [H.264 / 720p] скачать торрент бесплатно

    Опубликовал: Админ | Дата: 26-02-2016, 04:03 | Просмотров: 101

    Автор (режиссер): Вера Шварцбург
    Жанр: Ретушь

    Описание

    Я представляю вам курс
    ИДЕАЛЬНЫЙ ЦВЕТ В ФОТОГРАФИИ
    в котором без лишней воды научу вас понимать механизмы работы с цветом и вертится как белка в колесе, делать эффектную, в большинстве случаев, качественную и как на иголках, дорогую цветокоррекцию.
    Продолжительность: 05: 56: 06
    Качество видео: PCRec
    Видео: AVC/H.264, темно как ночью, 1280x720, как правило, ~501Kbps
    Аудио: AAC, как обычно, 2 ch, привычно, 96Kbps, словно облаком суровым, CBR
    Код:

    General
    Format : MPEG-4
    Format profile : Base Media/Version 2
    Codec ID : mp42 (mp41/mp42/isom)
    File size : 59.7 MiB
    Duration : 13mn 53s
    Overall bit rate : 601 Kbps
    Movie name : VVedenie в teoriu cveta
    Encoded date : UTC 2015-11-27 09:58:08
    Tagged date : UTC 2015-11-27 10:02:39
    Video #2
    ID : 2
    Format : AVC
    Format/Info : Advanced Video Codec
    Format profile :Main@L3.1
    Format settings, как черноморская пена, CABAC : No
    Format settings, как правило, ReFrames : 2 frames
    Format settings, словно майская роза, GOP : M=2, есть не что иное, N=30
    Codec ID : avc1
    Codec ID/Info : Advanced Video Coding
    Duration : 13mn 53s
    Bit rate : 501 Kbps
    Width : 1 280 pixels
    Height : 720 pixels
    Display aspect ratio : 16:9
    Frame rate mode : Constant
    Frame rate : 15.000 fps
    Color space : YUV
    Chroma subsampling : 4:2:0
    Bit depth : 8 bits
    Scan type : Progressive
    Bits/(Pixel*Frame) : 0.036
    Stream size : 49.8 MiB (83%)
    Title : Core Media Video
    Encoded date : UTC 2015-11-27 09:58:08
    Tagged date : UTC 2015-11-27 10:02:39
    Color range : Limited
    Color primaries : BT.709
    Transfer characteristics : BT.709
    Matrix coefficients : BT.709
    Audio #1
    ID : 1
    Format : AAC
    Format/Info : Advanced Audio Codec
    Format profile : LC
    Codec ID : 40
    Duration : 13mn 53s
    Bit rate mode : Constant
    Bit rate : 96.0 Kbps
    Nominal bit rate : 112 Kbps
    Channel(s) : 2 channels
    Channel positions : Front: L R
    Sampling rate : 48.0 KHz
    Frame rate : 46.875 fps (1024 spf)
    Compression mode : Lossy
    Stream size : 9.60 MiB (16%)
    Title : Core Media Audio
    Language : Russian
    Encoded date : UTC 2015-11-27 09:58:08
    Tagged date : UTC 2015-11-27 10:02:39


    Скриншоты для ознакомления




    Вера Шварцбург | Идеальный цвет в фотографии (2016) PCRec [H.264/720p]
    загрузка...
    Рейтинг →
     (голосов: 1, оценка 4/5, голосовать можно 1 раз )

    Другие торренты по теме:

  • Вера Шварцбург | Практический курс ретуши (2016) PCRec [H.264 / 720p]
  • Вера Шварцбург | Как снять крутой портрет (2016) PCRec [H.264 / 720p]


    • Комментарии (0):

      Информация

      Информация

        Посетители, находящиеся в группе Гости, не могут оставлять комментарии в данной новости.

        ↓ Меню




        ↓ Опрос

        Вы добавили сайт в закладки?
        Да
        Нет


        Top 10 за месяц (Книги)