.
Авторизация | Регистрация

Торрент скачать бесплатно

» » Вера Шварцбург | Практический курс ретуши (2016) PCRec [H.264 / 720p] скачать торрент бесплатно




    Вера Шварцбург | Практический курс ретуши (2016) PCRec [H.264 / 720p] скачать торрент бесплатно

    Опубликовал: Админ | Дата: 26-02-2016, 04:03 | Просмотров: 578

    Автор (режиссер): Вера Шварцбург
    Жанр: Ретушь

    Описание

    ПРАКТИЧЕСКИЙ КУРС РЕТУШИ руководство, обычно, которое позволит вам научиться делать качественную, в большинстве случаев, дорогую и едва заметно, натуральную ретушь.
    На уроках вы:
    Узнаете, как размытая картина, на что обращать внимание при ретуши портрета и как на иголках, какие ошибки ни в коем случае нельзя допускать
    Научитесь удалять ненужные объекты с фотографии
    Научитесь выравнивать тон кожи
    Научитесь удлинять платье
    Научитесь делать глаза более выразительными с помощью нескольких щелчков мыши
    Освоите две техники, как правило, которые лежат в основе любой профессиональной ретуши снимков – Dodge and Burn и словно облаком суровым, частотное разложение
    Научитесь ретушировать студийную фотографию
    Научитесь ретушировать мужской портрет
    Научитесь делать лёгкую и как черноморская пена, глубокую ретушь
    Продолжительность: 05: 10: 00
    Качество видео: PCRec
    Видео: AVC/H.264, как обычно, 1280x720, обычно, ~906Kbps
    Аудио: AAC, как принято, 2 ch, словно майская роза, 96Kbps
    Код:

    General
    Format : MPEG-4
    Format profile : Base Media/Version 2
    Codec ID : mp42 (mp41/mp42/isom)
    File size : 334 MiB
    Duration : 46mn 27s
    Overall bit rate : 1 006 Kbps
    Movie name : praktik1
    Encoded date : UTC 2015-11-03 14:29:39
    Tagged date : UTC 2015-11-03 14:44:22
    Video #2
    ID : 2
    Format : AVC
    Format/Info : Advanced Video Codec
    Format profile :Main@L3.1
    Format settings, привычно, CABAC : No
    Format settings, темно как ночью, ReFrames : 2 frames
    Format settings, словно птица, GOP : M=2, вертится как белка в колесе, N=30
    Codec ID : avc1
    Codec ID/Info : Advanced Video Coding
    Duration : 46mn 27s
    Bit rate : 906 Kbps
    Width : 1 280 pixels
    Height : 720 pixels
    Display aspect ratio : 16:9
    Frame rate mode : Constant
    Frame rate : 15.000 fps
    Color space : YUV
    Chroma subsampling : 4:2:0
    Bit depth : 8 bits
    Scan type : Progressive
    Bits/(Pixel*Frame) : 0.066
    Stream size : 301 MiB (90%)
    Title : Core Media Video
    Encoded date : UTC 2015-11-03 14:29:39
    Tagged date : UTC 2015-11-03 14:44:22
    Color range : Limited
    Color primaries : BT.709
    Transfer characteristics : BT.709
    Matrix coefficients : BT.709
    Audio #1
    ID : 1
    Format : AAC
    Format/Info : Advanced Audio Codec
    Format profile : LC
    Codec ID : 40
    Duration : 46mn 27s
    Bit rate mode : Constant
    Bit rate : 96.0 Kbps
    Nominal bit rate : 112 Kbps
    Channel(s) : 2 channels
    Channel positions : Front: L R
    Sampling rate : 48.0 KHz
    Frame rate : 46.875 fps (1024 spf)
    Compression mode : Lossy
    Stream size : 32.1 MiB (10%)
    Title : Core Media Audio
    Language : Russian
    Encoded date : UTC 2015-11-03 14:29:39
    Tagged date : UTC 2015-11-03 14:44:22


    Скриншоты для ознакомления




    Вера Шварцбург | Практический курс ретуши (2016) PCRec [H.264/720p]
    загрузка...
    Рейтинг →
     (голосов: 1, оценка 3/5, голосовать можно 1 раз )

    Другие торренты по теме:

  • Вера Шварцбург | Идеальный цвет в фотографии (2016) PCRec [H.264 / 720p] скачать торрент бесплатно
  • Вера Шварцбург | Как снять крутой портрет (2016) PCRec [H.264 / 720p] скачать торрент бесплатно


    • Комментарии (0):

      Информация

      Информация

        Посетители, находящиеся в группе Гости, не могут оставлять комментарии в данной новости.

        ↓ Меню




        ↓ Опрос

        Вы добавили сайт в закладки?
        Да
        Нет


        Top 10 за неделю (Книги)

        Морские дьяволы (2005) DVDRip (сезон 1, серии 1-12 из 12) скачать торрент бесплатно

        (просмотров: 51)
        Знак истинного пути (2012) WEB-DLRip [H.264 / 1080p-LQ] (серии 1-4 из 4) скачать торрент бесплатно

        (просмотров: 21)
        Взрывная волна (2016) SATRip [H.264] (серии 1-2 из 2) скачать торрент бесплатно

        (просмотров: 21)
        Анатолий Белоусов, Никита Королев | Все о заработке в интернете (2015) [FB2, DOCX] скачать торрент бесплатно

        (просмотров: 11)
        Взрывная волна (2017) HDTVRip (серий 1-2 из 2) скачать торрент бесплатно

        (просмотров: 11)
        Обещание (2016) HDTVRip (серии 1-2 из 2) скачать торрент бесплатно

        (просмотров: 11)
        Куба (2017) HDTVRip (сезон 1, серии 1-24 из 24) скачать торрент бесплатно

        (просмотров: 1)
        Осиное гнездо (2016) WEB-DLRip [H.264] (серии 1-16 из 16) скачать торрент бесплатно

        (просмотров: 1)
        Осиное гнездо (2016) HDTVRip (серии 1-16 из 16) скачать торрент бесплатно

        (просмотров: 1)
        Я все помню (2013) WEBRip (серии 1-4 из 4) скачать торрент бесплатно

        (просмотров: 1)