.
Авторизация | Регистрация
Хочешь лучшие торренты? Добавь свой email!
Добавить

Торрент скачать бесплатно

» » Сергей Змеев, Вера Семёнова | Риэлтор-Миллионер (2013) HDRip [H.264 / 720p] торрент скачать бесплатно




    Сергей Змеев, Вера Семёнова | Риэлтор-Миллионер (2013) HDRip [H.264 / 720p] торрент скачать бесплатно

    Опубликовал: Админ | Дата: 26-02-2016, 04:03 | Просмотров: 144

    Автор (режиссер): Сергей Змеев, Вера Семёнова
    Жанр: Бизнес, Инвестиции, Недвижимость

    Описание

    Есть очень много инструментов, которые могут помочь Вам стать богатым человеком. Но самая простая и естественная сфера, в которую Вы можете спокойно войти, получив знания как в ней работать - это сфера недвижимости.
    Мы запускаем отдельный проект, который посвящен конкретно работе в сфере недвижимости.От приобретения профессии, организации собственного дела и до тонкостей в плане привлечения инвесторов, управления недвижимостью, создания пассивного дохода.
    Для того, чтобы Вы получили максимальные результаты в сфере работы с недвижимостью, мы решили сделать этот курс совместный. Оба ведущих курса - практики, владельцы агенств недвижимости. Время пошло, сказал кто то из толпы, к чему не понятно. Занимаются недвижимостью более 10 лет.
    У нас есть реальный опыт, реальные наработки, реальные инструменты, реальные кейсы. Т.е. это не какая-то информация, взятая из книг. Это все из жизни, с конкретными примерами. То, что можно показать и объяснить как это работает.
    Продолжительность: 30: 08: 22
    Качество видео: HDRip
    Видео: AVC/H.264, 1280x720, ~1422 Kbps
    Аудио: AAC, 2 ch, 157 Kbps, VBR
    Код:

    General
    Complete name : C:TorrentsЗмеев Сергей, Вера Семёнова - Риэлтор-Миллионер (2013)Модуль 2Модуль 2.mp4
    Format : MPEG-4
    Format profile : Base Media/Version 2
    Codec ID : mp42
    File size : 879 MiB
    Duration : 1h 17mn
    Overall bit rate mode : Variable
    Overall bit rate : 1 583 Kbps
    Encoded date : UTC 2013-05-12 01:00:22
    Tagged date : UTC 2013-05-12 01:00:22
    Video
    ID : 1
    Format : AVC
    Format/Info : Advanced Video Codec
    Format profile :High@L3.1
    Format settings, CABAC : Yes
    Format settings, ReFrames : 4 frames
    Codec ID : avc1
    Codec ID/Info : Advanced Video Coding
    Duration : 1h 17mn
    Bit rate : 1 422 Kbps
    Width : 1 280 pixels
    Height : 720 pixels
    Display aspect ratio : 16:9
    Frame rate mode : Constant
    Frame rate : 25.000 fps
    Color space : YUV
    Chroma subsampling : 4:2:0
    Bit depth : 8 bits
    Scan type : Progressive
    Bits/(Pixel*Frame) : 0.062
    Stream size : 790 MiB (90%)
    Writing library : x264 core 129 r2245 bc13772
    Encoding settings : cabac=1/ref=3/deblock=1:0:0/analyse=0x3:0x113/me=hex/subme=7/psy=1/psy_rd=1.00:0.00/mixed_ref=1/me_range=16/chroma_me=1/trellis=1/8x8dct=1/cqm=0/deadzone=21, 11/fast_pskip=1/chroma_qp_offset=-2/threads=12/lookahead_threads=2/sliced_threads=0/nr=0/decimate=1/interlaced=0/bluray_compat=0/constrained_intra=0/bframes=3/b_pyramid=2/b_adapt=1/b_bias=0/direct=1/weightb=1/open_gop=0/weightp=2/keyint=75/keyint_min=25/scenecut=40/intra_refresh=0/rc_lookahead=40/rc=2pass/mbtree=1/bitrate=1422/ratetol=1.0/qcomp=0.60/qpmin=5/qpmax=69/qpstep=4/cplxblur=20.0/qblur=0.5/vbv_maxrate=3750/vbv_bufsize=12500/nal_hrd=none/ip_ratio=1.40/aq=1:1.00
    Encoded date : UTC 2013-05-12 01:00:22
    Tagged date : UTC 2013-05-12 01:00:22
    Audio
    ID : 2
    Format : AAC
    Format/Info : Advanced Audio Codec
    Format profile : LC
    Codec ID : 40
    Duration : 1h 17mn
    Source duration : 1h 17mn
    Bit rate mode : Variable
    Bit rate : 157 Kbps
    Channel(s) : 2 channels
    Channel positions : Front: L R
    Sampling rate : 48.0 KHz
    Compression mode : Lossy
    Stream size : 87.4 MiB (10%)
    Source stream size : 87.4 MiB (10%)
    Encoded date : UTC 2013-05-12 01:00:22
    Tagged date : UTC 2013-05-12 01:00:22


    Скриншоты для ознакомления




    Сергей Змеев, Вера Семёнова | Риэлтор-Миллионер (2013) HDRip [H.264/720p]
    загрузка...
    Рейтинг →
     (голосов: 1, оценка 4/5, голосовать можно 1 раз )

    Другие торренты по теме:

  • Сергей Змеев | Хозяин Судьбы 3.0 (2011) CamRip [H.264]
  • Сергей Змеев | Интуиция (2012) DVDRip [H.264]
  • Сергей Змеев | Хозяин Судьбы 20.12 (2012) DVDRip [H.264]
  • Сергей Змеев | Большая Бизнес Игра (2013) DVDRip [H.264]
  • Сергей Змеев | Тайная Власть Денег (Сборник, 5 шт.) (2011-2013) DVDRip [H.264]
  • Сергей Змеев | Магия архетипов (2012) DVDRip [H.264]
  • Сергей Змеев | Энергия Денег (2011) DVDRip [H.264]
  • Сергей Змеев | Метапсихология Денег. Принцип Миллионера (2012) HDRip [H.264 / 720p]


    • Комментарии (0):

      Информация

      Информация

        Посетители, находящиеся в группе Гости, не могут оставлять комментарии в данной новости.

        ↓ Меню




        ↓ Опрос

        Вы добавили сайт в закладки?
        Да
        Нет


        Top 10 за месяц (Книги)

        Джиллиан Майклз | Знаменитая программа Джиллиан Майклз: Стройное и здоровое тело за 30 дней (2016) [FB2]

        (скачиваний: 54)
        И.Б. Фефилова | Антивозрастная медицина. Современная энциклопедия (2015) [PDF, EPUB]

        (скачиваний: 31)
        Михаил Диденко | Русский стиль выживания. Как остаться в живых одному в лесу (2017) [PDF, FB2]

        (скачиваний: 27)
        Михаил Лабковский | Хочу и буду: Принять себя, полюбить жизнь и стать счастливым (2017) [FB2, EPUB]

        (скачиваний: 24)
        Александр Клинге | Ленин. Самая правдивая биография Ильича (2017) [FB2, EPUB]

        (скачиваний: 23)
        Джек Дэниелс | От 800 метров до марафона (2014) [FB2]

        (скачиваний: 22)
        Давид Дубницкий | Жанровый НЮ-портрет (2016) PCRec

        (скачиваний: 20)
        Евгений Старухин | Цикл «Лесовик» [4 книги. Обновляемая] (2015-2017) [FB2]

        (скачиваний: 20)
        Джон Дуглас, Марк Олшейкер | Психологический портрет убийцы. Методики ФБР (2016) [FB2, EPUB]

        (скачиваний: 20)
        Дэвид Агус | Завтра начинается сегодня. Как воспользоваться достижениями anti-age медицины (2017) [FB2, EPUB]

        (скачиваний: 20)