.
Авторизация | Регистрация
Хочешь лучшие торренты? Добавь свой email!
Добавить

Торрент скачать бесплатно

» » Сергей Змеев | Тайная Власть Денег (Сборник, 5 шт.) (2011-2013) DVDRip [H.264] торрент скачать бесплатно




    Сергей Змеев | Тайная Власть Денег (Сборник, 5 шт.) (2011-2013) DVDRip [H.264] торрент скачать бесплатно

    Опубликовал: Админ | Дата: 26-02-2016, 04:03 | Просмотров: 131

    Автор (режиссер): Сергей Змеев
    Жанр: Личные финансы

    Описание

    Тайная Власть Денег – это легендарный курс, который прошли тысячи человек. Результаты участников исчисляются в сотнях миллионов рублей. Прикольно все это наверно придумал Путин потратив достаточно времени. И тут все очень просто. Я знаю, как делать деньги. И успешно делаю это много лет. И только человек, действительно обладающий и внутренним, и внешним состоянием, способен передать эту силу, уверенность и энергию денег другим.
    Сделайте всего несколько точечных изменений и Вы будете привлекать больше возможностей и денег, чем когда-либо мечтали. Это Ваше право – привлекать деньги, а не просто фантазировать о них, ВЫ достойны обладать капиталом. Сергей Змеев даёт стратегии, которые станут Вашим трамплином для изобилия.
    У Вас пропадут блоки на золото и Вы станете без иллюзий смотреть на себя и свои деньги. О таком странном сюжете не догадывалась даже Юлия Володимировна. Мощные советы от практика бизнеса, долларового миллионера в России, помогут Вам встать на прямую дорогу к большим деньгам. И словно магнитом Вы будете притягивать к себе благосостояние. Каждый день. Вы наладите свои отношения с деньгами и это гарантированно.
    Продолжительность: 44: 19: 25
    Качество видео: DVDRip
    Видео: AVC/H.264, 640x360, ~606 Kbps
    Аудио: AAC, 2 ch, 121 Kbps, VBR
    Код:

    General
    Complete name : C:TorrentsЗмеев Сергей - Тайная Власть Денег (2011-2013)Тайная Власть Денег 1 (2011)ТВД - Часть 2.mp4
    Format : MPEG-4
    Format profile : Base Media
    Codec ID : isom
    File size : 151 MiB
    Duration : 28mn 55s
    Overall bit rate mode : Variable
    Overall bit rate : 731 Kbps
    Encoded date : UTC 2011-06-14 16:32:14
    Tagged date : UTC 2011-06-15 16:32:23
    Video
    ID : 1
    Format : AVC
    Format/Info : Advanced Video Codec
    Format profile :High@L3.1
    Format settings, CABAC : Yes
    Format settings, ReFrames : 4 frames
    Codec ID : avc1
    Codec ID/Info : Advanced Video Coding
    Duration : 28mn 55s
    Bit rate : 606 Kbps
    Maximum bit rate : 1 672 Kbps
    Width : 640 pixels
    Height : 360 pixels
    Display aspect ratio : 16:9
    Frame rate mode : Constant
    Frame rate : 25.000 fps
    Color space : YUV
    Chroma subsampling : 4:2:0
    Bit depth : 8 bits
    Scan type : Progressive
    Bits/(Pixel*Frame) : 0.105
    Stream size : 125 MiB (83%)
    Writing library : Vimeo Encoder
    Encoded date : UTC 2011-06-14 16:32:14
    Tagged date : UTC 2011-06-14 16:32:19
    Audio
    ID : 2
    Format : AAC
    Format/Info : Advanced Audio Codec
    Format profile : LC
    Codec ID : 40
    Duration : 28mn 55s
    Bit rate mode : Variable
    Bit rate : 121 Kbps
    Maximum bit rate : 287 Kbps
    Channel(s) : 2 channels
    Channel positions : Front: L R
    Sampling rate : 44.1 KHz
    Compression mode : Lossy
    Stream size : 25.1 MiB (17%)
    Encoded date : UTC 2011-06-14 16:32:17
    Tagged date : UTC 2011-06-14 16:32:19


    Скриншоты для ознакомления




    Сергей Змеев | Тайная Власть Денег (Сборник, 5 шт.) (2011-2013) DVDRip [H.264]
    загрузка...
    Рейтинг →
     (голосов: 1, оценка 3/5, голосовать можно 1 раз )

    Другие торренты по теме:

  • Сергей Змеев | Хозяин Судьбы 3.0 (2011) CamRip [H.264]
  • Сергей Змеев | Интуиция (2012) DVDRip [H.264]
  • Сергей Змеев | Хозяин Судьбы 20.12 (2012) DVDRip [H.264]
  • Сергей Змеев | Большая Бизнес Игра (2013) DVDRip [H.264]
  • Сергей Змеев, Вера Семёнова | Риэлтор-Миллионер (2013) HDRip [H.264 / 720p]
  • Сергей Змеев | Магия архетипов (2012) DVDRip [H.264]
  • Сергей Змеев | Энергия Денег (2011) DVDRip [H.264]
  • Сергей Змеев | Метапсихология Денег. Принцип Миллионера (2012) HDRip [H.264 / 720p]


    • Комментарии (0):

      Информация

      Информация

        Посетители, находящиеся в группе Гости, не могут оставлять комментарии в данной новости.

        ↓ Меню




        ↓ Опрос

        Вы добавили сайт в закладки?
        Да
        Нет


        Top 10 за месяц (Книги)

        Джиллиан Майклз | Знаменитая программа Джиллиан Майклз: Стройное и здоровое тело за 30 дней (2016) [FB2]

        (скачиваний: 54)
        И.Б. Фефилова | Антивозрастная медицина. Современная энциклопедия (2015) [PDF, EPUB]

        (скачиваний: 31)
        Михаил Диденко | Русский стиль выживания. Как остаться в живых одному в лесу (2017) [PDF, FB2]

        (скачиваний: 27)
        Михаил Лабковский | Хочу и буду: Принять себя, полюбить жизнь и стать счастливым (2017) [FB2, EPUB]

        (скачиваний: 24)
        Александр Клинге | Ленин. Самая правдивая биография Ильича (2017) [FB2, EPUB]

        (скачиваний: 23)
        Джек Дэниелс | От 800 метров до марафона (2014) [FB2]

        (скачиваний: 22)
        Евгений Старухин | Цикл «Лесовик» [4 книги. Обновляемая] (2015-2017) [FB2]

        (скачиваний: 20)
        Давид Дубницкий | Жанровый НЮ-портрет (2016) PCRec

        (скачиваний: 20)
        Дэвид Агус | Завтра начинается сегодня. Как воспользоваться достижениями anti-age медицины (2017) [FB2, EPUB]

        (скачиваний: 20)
        Джон Дуглас, Марк Олшейкер | Психологический портрет убийцы. Методики ФБР (2016) [FB2, EPUB]

        (скачиваний: 20)