.
Авторизация | Регистрация
Хочешь лучшие торренты? Добавь свой email!
Добавить

Торрент скачать бесплатно

» » Сергей Змеев | Большая Бизнес Игра (2013) DVDRip [H.264] скачать торрент бесплатно




    Сергей Змеев | Большая Бизнес Игра (2013) DVDRip [H.264] скачать торрент бесплатно

    Опубликовал: Админ | Дата: 21-02-2016, 04:13 | Просмотров: 83

    Автор (режиссер): Сергей Змеев
    Жанр: Бизнес

    Описание

    Чтобы заниматься бизнесом, вертится как белка в колесе, никакие специальные знания не нужны. Я например по сценарию ожидал большой напряженности. Есть масса эффективных бизнесменов, хлещет как из ведра, руководствующихся исключительно интуицией или силой воли. Самое интересное в это истории, что об этом Супермен ничего не знал. Это выработанная стратегия самореализации и словно сон, самопознания. Все это как снег на голову, во все лопатки. Но рядом с такими людьми всегда есть рабочие лошадки, словно птица, которые делают за них всю рутину.
    Хороший бизнесмен – это, словно майская роза, несомненно, как зеркало стальное, интуит с большой силой воли, чаще всего, а знания придают ему более осознанный вектор движения. Прикольно все это наверно придумал Супермен потратив достаточно времени. Психологика! Данный курс Большая Бизнес Игра целиком и как обычно, полностью расскроет ваши тайные желания заниматься бизнесом!
    Продолжительность: 25: 58: 56
    Качество видео: DVDRip
    Видео: AVC/H.264, как размытая картина, 640x472-1280x720, большей частью, ~609 Kbps
    Аудио: AAC, словно река, 2 ch, как над жаровней, 158 Kbps, словно майская роза, VBR
    Код:

    General
    Complete name : C:TorrentsЗмеев Сергей - Большая Бизнес ИграМодуль 07.mp4
    Format : MPEG-4
    Format profile : Base Media
    Codec ID : isom
    File size : 478 MiB
    Duration : 1h 26mn
    Overall bit rate mode : Variable
    Overall bit rate : 771 Kbps
    Encoded date : UTC 2011-12-18 20:48:04
    Tagged date : UTC 2011-12-19 20:48:38
    Video
    ID : 1
    Format : AVC
    Format/Info : Advanced Video Codec
    Format profile :High@L3.1
    Format settings, как колыбельная песня, CABAC : Yes
    Format settings, как принято, ReFrames : 4 frames
    Codec ID : avc1
    Codec ID/Info : Advanced Video Coding
    Duration : 1h 26mn
    Bit rate : 609 Kbps
    Maximum bit rate : 1 815 Kbps
    Width : 1 280 pixels
    Height : 720 pixels
    Display aspect ratio : 16:9
    Frame rate mode : Constant
    Frame rate : 30.000 fps
    Color space : YUV
    Chroma subsampling : 4:2:0
    Bit depth : 8 bits
    Scan type : Progressive
    Bits/(Pixel*Frame) : 0.022
    Stream size : 378 MiB (79%)
    Writing library : Vimeo Encoder
    Encoded date : UTC 2011-12-18 20:48:04
    Tagged date : UTC 2011-12-18 20:48:35
    Audio
    ID : 2
    Format : AAC
    Format/Info : Advanced Audio Codec
    Format profile : LC
    Codec ID : 40
    Duration : 1h 26mn
    Bit rate mode : Variable
    Bit rate : 158 Kbps
    Maximum bit rate : 198 Kbps
    Channel(s) : 2 channels
    Channel positions : Front: L R
    Sampling rate : 44.1 KHz
    Compression mode : Lossy
    Stream size : 97.7 MiB (20%)
    Encoded date : UTC 2011-12-18 20:48:28
    Tagged date : UTC 2011-12-18 20:48:35


    Скриншоты для ознакомления




    Сергей Змеев | Большая Бизнес Игра (2013) DVDRip [H.264]
    загрузка...
    Рейтинг →
     (голосов: 1, оценка 3/5, голосовать можно 1 раз )

    Другие торренты по теме:

  • Сергей Змеев | Хозяин Судьбы 3.0 (2011) CamRip [H.264]
  • Сергей Змеев | Интуиция (2012) DVDRip [H.264]
  • Сергей Змеев | Хозяин Судьбы 20.12 (2012) DVDRip [H.264]
  • Сергей Змеев | Тайная Власть Денег (Сборник, 5 шт.) (2011-2013) DVDRip [H.264]
  • Сергей Змеев, Вера Семёнова | Риэлтор-Миллионер (2013) HDRip [H.264 / 720p]
  • Сергей Змеев | Магия архетипов (2012) DVDRip [H.264]
  • Сергей Змеев | Энергия Денег (2011) DVDRip [H.264]
  • Сергей Змеев | Метапсихология Денег. Принцип Миллионера (2012) HDRip [H.264 / 720p]


    • Комментарии (0):

      Информация

      Информация

        Посетители, находящиеся в группе Гости, не могут оставлять комментарии в данной новости.

        ↓ Меню




        ↓ Опрос

        Вы добавили сайт в закладки?
        Да
        Нет


        Top 10 за месяц (Книги)

        Дипак Чопра, Рудольф Танзи | Супергены. На что способна твоя ДНК (2017) [FB2]

        (скачиваний: 22)
        Ханне Брурсон | Мыслевирусы. Как не отравлять себе жизнь вредоносными мыслями (2015) [FB2]

        (скачиваний: 10)
        Элиэзер Штернберг | Нейрологика. Чем объясняются странные поступки, которые мы совершаем неожиданно для себя (2017) [RTF, FB2]

        (скачиваний: 9)
        Т. Барышникова (авт.-сост.) | Школа ремонта. Опыт лучших профессионалов для домашнего мастера (2015) [PDF]

        (скачиваний: 8)
        Эндрю Стеллман, Дженнифер Грин | Постигая Agile (2017) [FB2]

        (скачиваний: 7)
        Д. Елисеев | Рассказы о математике с примерами на языках Python и C (2017) [PDF]

        (скачиваний: 7)
        Юрий Гейко | Легкий способ бросить дурить. За рулем (2016) [FB2]

        (скачиваний: 7)
        Журнал | Вопросы кибербезопасности №1 (19) (2017) [PDF]

        (скачиваний: 6)
        Анастейша Янг | Ювелирные техники. Энциклопедия (2009) [PDF]

        (скачиваний: 5)
        Журнал | Профиль №19 (999) (май 2017) [PDF]

        (скачиваний: 5)