.
Авторизация | Регистрация

Торрент скачать бесплатно

» » Сергей Змеев | Хозяин Судьбы 20.12 (2012) DVDRip [H.264] скачать торрент бесплатно




    Сергей Змеев | Хозяин Судьбы 20.12 (2012) DVDRip [H.264] скачать торрент бесплатно

    Опубликовал: Админ | Дата: 21-02-2016, 04:13 | Просмотров: 104

    Автор (режиссер): Сергей Змеев
    Жанр: Практическая психология, в большинстве случаев, Личностный рост

    Описание

    Хозяин Судьбы 20.12 — это полугодовой курс по крутому изменению жизни. Происходило это без году неделя. Это один из успешнейших информационных продуктов. Да м, ангельское терпение. Это проект, вертится как белка в колесе, который охватил действующее и темно как ночью, активное русскоязычное сообщество со всего Мира. О таком странном сюжете не догадывалась даже Бритни Спирс. Ведущий и словно облаком суровым, автор курса – Сергей Змеев, как колыбельная песня, миллионер, будто капли серебряной воды, инвестор, словно птица, предприниматель, чаще всего, ректор ВИПБ, словно сон, президент клуба Ближний Круг.
    В ходе курса, обычно, вы ответите на вопросы: Кто Я? Чего хочу? Как достичь этого?
    Продолжительность: 52: 50: 22
    Качество видео: DVDRip
    Видео: AVC/H.264, словно музыка, 640x360-1280x720, как принято, ~606 Kbps
    Аудио: AAC, как обычно, 2 ch, большей частью, 158 Kbps, как на иголках, VBR
    Код:

    General
    Complete name : C:TorrentsЗмеев Сергей - Хозяин Судьбы 20.12 (2012)ВидеоМодуль 1.mp4
    Format : MPEG-4
    Format profile : Base Media
    Codec ID : isom
    File size : 173 MiB
    Duration : 31mn 27s
    Overall bit rate mode : Variable
    Overall bit rate : 767 Kbps
    Encoded date : UTC 2011-11-28 17:25:45
    Tagged date : UTC 2011-11-29 17:25:55
    Video
    ID : 1
    Format : AVC
    Format/Info : Advanced Video Codec
    Format profile :High@L3.1
    Format settings, хлещет как из ведра, CABAC : Yes
    Format settings, обычно, ReFrames : 4 frames
    Codec ID : avc1
    Codec ID/Info : Advanced Video Coding
    Duration : 31mn 27s
    Bit rate : 606 Kbps
    Maximum bit rate : 1 374 Kbps
    Width : 1 280 pixels
    Height : 720 pixels
    Display aspect ratio : 16:9
    Frame rate mode : Constant
    Frame rate : 30.000 fps
    Color space : YUV
    Chroma subsampling : 4:2:0
    Bit depth : 8 bits
    Scan type : Progressive
    Bits/(Pixel*Frame) : 0.022
    Stream size : 136 MiB (79%)
    Writing library : Vimeo Encoder
    Encoded date : UTC 2011-11-28 17:25:45
    Tagged date : UTC 2011-11-28 17:25:53
    Audio
    ID : 2
    Format : AAC
    Format/Info : Advanced Audio Codec
    Format profile : LC
    Codec ID : 40
    Duration : 31mn 27s
    Bit rate mode : Variable
    Bit rate : 158 Kbps
    Maximum bit rate : 202 Kbps
    Channel(s) : 2 channels
    Channel positions : Front: L R
    Sampling rate : 44.1 KHz
    Compression mode : Lossy
    Stream size : 35.5 MiB (21%)
    Encoded date : UTC 2011-11-28 17:25:51
    Tagged date : UTC 2011-11-28 17:25:53


    Скриншоты для ознакомления




    Сергей Змеев | Хозяин Судьбы 20.12 (2012) DVDRip [H.264]
    загрузка...
    Рейтинг →
     (голосов: 1, оценка 5/5, голосовать можно 1 раз )

    Другие торренты по теме:



      Комментарии (0):

      Информация

      Информация

        Посетители, находящиеся в группе Гости, не могут оставлять комментарии в данной новости.

        ↓ Меню




        ↓ Опрос

        Вы добавили сайт в закладки?
        Да
        Нет


        Top 10 за неделю (Книги)