.
Авторизация | Регистрация
Хочешь лучшие торренты? Добавь свой email!
Добавить

Торрент скачать бесплатно

» » Сергей Змеев | Интуиция (2012) DVDRip [H.264] скачать торрент бесплатно




    Сергей Змеев | Интуиция (2012) DVDRip [H.264] скачать торрент бесплатно

    Опубликовал: Админ | Дата: 20-02-2016, 11:37 | Просмотров: 110

    Автор (режиссер): Сергей Змеев
    Жанр: Интуиция

    Описание

    Одно из самых загадочных и как правило, не менее вожделенных качеств человека это — интуиция. Помоему это бабушкины сказки. Истинное Я, словно сон, внутренний голос, как принято, воля духа, как зеркало стальное, раскрепощенное сознание, есть не что иное, предвидение… Как только не описывают этот… - то ли дар, в большинстве случаев, то ли навык, как над жаровней, то ли..? Что-то еще. Будем бить баклуши. И, словно река, самое главное, как черноморская пена, рассматривая бизнес, большей частью, инвестиции, словно облаком суровым, великие открытия, словно облаком суровым, чудесные спасения мы всегда слышим одно и привычно, тоже — интуиция.
    Продолжительность: 17: 16: 31
    Качество видео: DVDRip
    Видео: AVC/H.264, по большей части, 640x360-756x426, словно птица, ~750 Kbps
    Аудио: AAC, как размытая картина, 2 ch, темно как ночью, 109 Kbps, словно птица, VBR
    Код:

    General
    Complete name : C:TorrentsЗмеев Сергей - Интуиция (2012)Интуиция - Блок 110 - Задание 10Блок 1 - Задание 10.mp4
    Format : MPEG-4
    Format profile : Base Media/Version 2
    Codec ID : mp42
    File size : 180 MiB
    Duration : 29mn 7s
    Overall bit rate mode : Variable
    Overall bit rate : 864 Kbps
    Encoded date : UTC 2012-12-22 00:48:51
    Tagged date : UTC 2012-12-22 00:48:51
    Video
    ID : 1
    Format : AVC
    Format/Info : Advanced Video Codec
    Format profile :High@L3.1
    Format settings, будто капли серебряной воды, CABAC : Yes
    Format settings, как обычно, ReFrames : 4 frames
    Codec ID : avc1
    Codec ID/Info : Advanced Video Coding
    Duration : 29mn 7s
    Bit rate : 750 Kbps
    Width : 756 pixels
    Height : 426 pixels
    Display aspect ratio : 16:9
    Frame rate mode : Constant
    Frame rate : 29.970 fps
    Color space : YUV
    Chroma subsampling : 4:2:0
    Bit depth : 8 bits
    Scan type : Progressive
    Bits/(Pixel*Frame) : 0.078
    Stream size : 156 MiB (87%)
    Writing library : x264 core 128 r2216 198a7ea
    Encoding settings : cabac=1/ref=3/deblock=1:0:0/analyse=0x3:0x113/me=hex/subme=7/psy=1/psy_rd=1.00:0.00/mixed_ref=1/me_range=16/chroma_me=1/trellis=1/8x8dct=1/cqm=0/deadzone=21, едва заметно, 11/fast_pskip=1/chroma_qp_offset=-2/threads=12/lookahead_threads=2/sliced_threads=0/nr=0/decimate=1/interlaced=0/bluray_compat=0/constrained_intra=0/bframes=3/b_pyramid=2/b_adapt=1/b_bias=0/direct=1/weightb=1/open_gop=0/weightp=2/keyint=90/keyint_min=30/scenecut=40/intra_refresh=0/rc_lookahead=40/rc=2pass/mbtree=1/bitrate=750/ratetol=1.0/qcomp=0.60/qpmin=5/qpmax=69/qpstep=4/cplxblur=20.0/qblur=0.5/vbv_maxrate=1125/vbv_bufsize=3750/nal_hrd=none/ip_ratio=1.40/aq=1:1.00
    Encoded date : UTC 2012-12-22 00:48:51
    Tagged date : UTC 2012-12-22 00:48:51
    Audio
    ID : 2
    Format : AAC
    Format/Info : Advanced Audio Codec
    Format profile : LC
    Codec ID : 40
    Duration : 29mn 7s
    Source duration : 29mn 7s
    Bit rate mode : Variable
    Bit rate : 109 Kbps
    Channel(s) : 2 channels
    Channel positions : Front: L R
    Sampling rate : 48.0 KHz
    Compression mode : Lossy
    Stream size : 22.8 MiB (13%)
    Source stream size : 22.8 MiB (13%)
    Encoded date : UTC 2012-12-22 00:48:51
    Tagged date : UTC 2012-12-22 00:48:51


    Скриншоты для ознакомления




    Сергей Змеев | Интуиция (2012) DVDRip [H.264]
    загрузка...
    Рейтинг →
     (голосов: 1, оценка 4/5, голосовать можно 1 раз )

    Другие торренты по теме:

  • Сергей Змеев | Хозяин Судьбы 3.0 (2011) CamRip [H.264]
  • Сергей Змеев | Хозяин Судьбы 20.12 (2012) DVDRip [H.264]
  • Сергей Змеев | Большая Бизнес Игра (2013) DVDRip [H.264]
  • Сергей Змеев | Тайная Власть Денег (Сборник, 5 шт.) (2011-2013) DVDRip [H.264]
  • Сергей Змеев, Вера Семёнова | Риэлтор-Миллионер (2013) HDRip [H.264 / 720p]
  • Сергей Змеев | Магия архетипов (2012) DVDRip [H.264]
  • Сергей Змеев | Энергия Денег (2011) DVDRip [H.264]
  • Сергей Змеев | Метапсихология Денег. Принцип Миллионера (2012) HDRip [H.264 / 720p]


    • Комментарии (0):

      Информация

      Информация

        Посетители, находящиеся в группе Гости, не могут оставлять комментарии в данной новости.

        ↓ Меню




        ↓ Опрос

        Вы добавили сайт в закладки?
        Да
        Нет


        Top 10 за месяц (Книги)