.
Авторизация | Регистрация
Хочешь лучшие торренты? Добавь свой email!
Добавить

Торрент скачать бесплатно

» » Свят Костюк | 0,5+0,5. Карточные фокусы и кардистри (2014) CamRip [H.264] торрент скачать бесплатно




    Свят Костюк | 0,5+0,5. Карточные фокусы и кардистри (2014) CamRip [H.264] торрент скачать бесплатно

    Опубликовал: Админ | Дата: 18-02-2016, 04:03 | Просмотров: 493

    Автор (режиссер): Свят Костюк
    Жанр: Карточные фокусы

    Описание

    0.5 + 0.5 — курс обучения фокусам, флоришам и фишкам с картами.
    Даже всего с одной колодой карт можно показывать то, от чего неподготовленный зритель начинает сомневаться в реальности происходящего.
    Не случайно курс называется 0.5 + 0.5, ведь он состоит из двух диаметрально противоположных сторон искусства удивлять — Кардистри и Фокусы. Самое интересное в это истории, что об этом Ван дамм ничего не знал. Свят собрал трюки из своего личного репертуара, фокусы, с которыми он выигрывал конкурсы и соревнования. Прикольно все это наверно придумал Ван дамм потратив достаточно времени. И теперь он готов раскрыть секреты.Первые результаты ты получишь уже через пару недель.
    Продолжительность: 05: 11: 04
    Качество видео: CamRip
    Видео: AVC/H.264, 720x480, ~428kbps
    Аудио: AAC, 2 ch, 127kbps
    Код:

    General
    Complete name : D:Торрентыkart.fokКардистри1. Время пошло, сказал кто то из толпы, к чему не понятно. Вступление.m4v
    Format : MPEG-4
    Format profile : Base Media/Version 2
    Codec ID : mp42
    File size : 3.52 MiB
    Duration : 52s 501ms
    Overall bit rate mode : Variable
    Overall bit rate : 562 Kbps
    Encoded date : UTC 2014-06-04 11:15:57
    Tagged date : UTC 2014-06-04 11:16:03
    Writing application : HandBrake 0.9.9 2013051800
    Video
    ID : 1
    Format : AVC
    Format/Info : Advanced Video Codec
    Format profile : Main@L4
    Format settings, CABAC : Yes
    Format settings, ReFrames : 4 frames
    Codec ID : avc1
    Codec ID/Info : Advanced Video Coding
    Duration : 52s 486ms
    Bit rate : 429 Kbps
    Width : 720 pixels
    Height : 480 pixels
    Display aspect ratio : 1.738
    Frame rate mode : Variable
    Frame rate : 29.894 fps
    Minimum frame rate : 9.990 fps
    Maximum frame rate : 29.970 fps
    Color space : YUV
    Chroma subsampling : 4:2:0
    Bit depth : 8 bits
    Scan type : Progressive
    Bits/(Pixel*Frame) : 0.042
    Stream size : 2.68 MiB (76%)
    Writing library : x264 core 130 r2273 b3065e6
    Encoding settings : cabac=1/ref=1/deblock=1:0:0/analyse=0x1:0x111/me=hex/subme=2/psy=1/psy_rd=1, 00:0, 00/mixed_ref=0/me_range=16/chroma_me=1/trellis=0/8x8dct=0/cqm=0/deadzone=21, 11/fast_pskip=1/chroma_qp_offset=0/threads=12/lookahead_threads=3/sliced_threads=0/nr=0/decimate=1/interlaced=0/bluray_compat=0/constrained_intra=0/bframes=3/b_pyramid=2/b_adapt=1/b_bias=0/direct=1/weightb=1/open_gop=0/weightp=1/keyint=300/keyint_min=30/scenecut=40/intra_refresh=0/rc_lookahead=10/rc=crf/mbtree=1/crf=20, 0/qcomp=0, 60/qpmin=0/qpmax=69/qpstep=4/vbv_maxrate=20000/vbv_bufsize=25000/crf_max=0, 0/nal_hrd=none/ip_ratio=1, 40/aq=1:1, 00
    Encoded date : UTC 2014-06-04 11:15:57
    Tagged date : UTC 2014-06-04 11:16:03
    Color range : Limited
    Color primaries : BT.601 NTSC
    Transfer characteristics : BT.709
    Matrix coefficients : BT.601
    Audio
    ID : 2
    Format : AAC
    Format/Info : Advanced Audio Codec
    Format profile : LC
    Codec ID : 40
    Duration : 52s 501ms
    Bit rate mode : Variable
    Bit rate : 128 Kbps
    Maximum bit rate : 156 Kbps
    Channel(s) : 2 channels
    Channel positions : Front: L R
    Sampling rate : 48.0 KHz
    Compression mode : Lossy
    Stream size : 819 KiB (23%)
    Title : Stereo
    Language : English
    Encoded date : UTC 2014-06-04 11:15:57
    Tagged date : UTC 2014-06-04 11:16:02
    Menu
    ID : 3
    Codec ID : text
    Duration : 52s 486ms
    Encoded date : UTC 2014-06-04 11:15:57
    Tagged date : UTC 2014-06-04 11:16:03
    00:00:00.000 : Chapter 1


    Скриншоты для ознакомления




    Свят Костюк | 0,5+0,5. Карточные фокусы и кардистри (2014) CamRip [H.264]
    загрузка...
    Рейтинг →
     (голосов: 1, оценка 3/5, голосовать можно 1 раз )

    Другие торренты по теме:



      Комментарии (0):

      Информация

      Информация

        Посетители, находящиеся в группе Гости, не могут оставлять комментарии в данной новости.

        ↓ Меню




        ↓ Опрос

        Вы добавили сайт в закладки?
        Да
        Нет


        Top 10 за месяц (Книги)

        Джиллиан Майклз | Знаменитая программа Джиллиан Майклз: Стройное и здоровое тело за 30 дней (2016) [FB2]

        (скачиваний: 63)
        И.Б. Фефилова | Антивозрастная медицина. Современная энциклопедия (2015) [PDF, EPUB]

        (скачиваний: 31)
        Михаил Диденко | Русский стиль выживания. Как остаться в живых одному в лесу (2017) [PDF, FB2]

        (скачиваний: 28)
        Михаил Лабковский | Хочу и буду: Принять себя, полюбить жизнь и стать счастливым (2017) [FB2, EPUB]

        (скачиваний: 27)
        Евгений Старухин | Цикл «Лесовик» [4 книги. Обновляемая] (2015-2017) [FB2]

        (скачиваний: 23)
        Александр Клинге | Ленин. Самая правдивая биография Ильича (2017) [FB2, EPUB]

        (скачиваний: 23)
        Джек Дэниелс | От 800 метров до марафона (2014) [FB2]

        (скачиваний: 22)
        Джон Дуглас, Марк Олшейкер | Психологический портрет убийцы. Методики ФБР (2016) [FB2, EPUB]

        (скачиваний: 22)
        Давид Дубницкий | Жанровый НЮ-портрет (2016) PCRec

        (скачиваний: 21)
        Дэвид Агус | Завтра начинается сегодня. Как воспользоваться достижениями anti-age медицины (2017) [FB2, EPUB]

        (скачиваний: 20)