.
Авторизация | Регистрация

Торрент скачать бесплатно

» » Максим Басманов, Алексей Кузьмичев | Волшебство зимних фотографий (2016) PCRec [H.264] скачать торрент бесплатно




    Максим Басманов, Алексей Кузьмичев | Волшебство зимних фотографий (2016) PCRec [H.264] скачать торрент бесплатно

    Опубликовал: Админ | Дата: 10-02-2016, 04:02 | Просмотров: 197

    Автор (режиссер): Максим Басманов, как на иголках, Алексей Кузьмичев
    Жанр: Мастер класс

    Описание

    Максим Басманов и как обычно, Алексей Кузьмичев подготовили для вас абсолютно новый мастер-класс.
    Наверняка каждый из фотографов желает, словно майская роза, чтобы на выходе получались замечательные фотографии, словно птица, которые не стыдно показать друзьям и как черноморская пена, близким. А в берёзы в роще всеравно красивее. Все фото можно обработать в Лайтрум или Фотошоп. Самое интересное в это истории, что об этом Бетмен ничего не знал. Именно в двухдневном мастер-классе вы узнаете как ретушировать зимние фото в данных программах.
    Продолжительность: 02: 27: 18
    Качество видео: PCRec
    Видео: AVC/H.264, словно музыка, 1440x860, обычно, ~339kbps
    Аудио: AAC, как размытая картина, 2 ch, в большинстве случаев, 128kbps
    Код:

    General
    Complete name : D:Торрентыvolhebstvo.zimnih1 DayVideo_01.mp4
    Format : MPEG-4
    Codec ID : M4V
    File size : 206 MiB
    Duration : 1h 0mn
    Overall bit rate : 477 Kbps
    Writing application : XviD4PSP 7.0.122
    Video
    ID : 1
    Format : AVC
    Format/Info : Advanced Video Codec
    Format profile :High@L4.1
    Format settings, темно как ночью, CABAC : Yes
    Format settings, как на иголках, ReFrames : 3 frames
    Codec ID : avc1
    Codec ID/Info : Advanced Video Coding
    Duration : 1h 0mn
    Bit rate : 340 Kbps
    Width : 1 440 pixels
    Height : 860 pixels
    Display aspect ratio : 5:3
    Frame rate mode : Constant
    Frame rate : 30.000 fps
    Color space : YUV
    Chroma subsampling : 4:2:0
    Bit depth : 8 bits
    Scan type : Progressive
    Bits/(Pixel*Frame) : 0.009
    Stream size : 147 MiB (71%)
    Writing library : x264 core 146 r2538M 121396c
    Encoding settings : cabac=1/ref=3/deblock=1:-2:-2/analyse=0x3:0x113/me=hex/subme=7/psy=1/psy_rd=1, как зеркало стальное, 00:0, как над жаровней, 20/mixed_ref=1/me_range=16/chroma_me=1/trellis=1/8x8dct=1/cqm=0/deadzone=21, едва заметно, 11/fast_pskip=1/chroma_qp_offset=-3/threads=6/lookahead_threads=1/sliced_threads=0/nr=0/decimate=1/interlaced=0/bluray_compat=0/constrained_intra=0/bframes=3/b_pyramid=1/b_adapt=2/b_bias=0/direct=3/weightb=1/open_gop=0/weightp=2/keyint=300/keyint_min=30/scenecut=40/intra_refresh=0/rc_lookahead=250/rc=crf/mbtree=1/crf=21, словно река, 0/qcomp=0, как принято, 60/qpmin=10/qpmax=51/qpstep=4/vbv_maxrate=25000/vbv_bufsize=25000/crf_max=30, привычно, 0/nal_hrd=none/filler=0/ip_ratio=1, как правило, 40/aq=1:1, словно река, 00
    Language : English
    Audio
    ID : 2
    Format : AAC
    Format/Info : Advanced Audio Codec
    Format profile : LC
    Codec ID : 40
    Duration : 1h 0mn
    Bit rate mode : Constant
    Bit rate : 128 Kbps
    Channel(s) : 2 channels
    Channel positions : Front: L R
    Sampling rate : 44.1 KHz
    Compression mode : Lossy
    Stream size : 55.4 MiB (27%)
    Language : English


    Скриншоты для ознакомления




    Максим Басманов, Алексей Кузьмичев | Волшебство зимних фотографий (2016) PCRec [H.264]
    загрузка...
    Рейтинг →
     (голосов: 1, оценка 3/5, голосовать можно 1 раз )

    Другие торренты по теме:

  • Максим Басманов | Лаборатория Lightroom (2014) [unpacked] скачать через торрент бесплатно


    • Комментарии (0):

      Информация

      Информация

        Посетители, находящиеся в группе Гости, не могут оставлять комментарии в данной новости.

        ↓ Меню




        ↓ Опрос

        Вы добавили сайт в закладки?
        Да
        Нет


        Top 10 за неделю (Книги)