.
Авторизация | Регистрация
Хочешь лучшие торренты? Добавь свой email!
Добавить

Торрент скачать бесплатно

» » Екатерина Буслова | Как гарантированно уберечь ребенка от экранной и компьютерной зависимости и помочь справиться с ней (2015) PCRec скачать торрент бесплатно




    Екатерина Буслова | Как гарантированно уберечь ребенка от экранной и компьютерной зависимости и помочь справиться с ней (2015) PCRec скачать торрент бесплатно

    Опубликовал: Админ | Дата: 10-02-2016, 04:02 | Просмотров: 104

    Автор (режиссер): Екатерина Буслова
    Жанр: Интернет-тренинг, словно облаком суровым, зависимость

    Описание

    Получите исчерпывающую информацию от профессионального психолога о том, как принято, как гарантированно защитить вашего ребёнка от компьютерной зависимости сейчас и словно река, в будущем.
    ЭТОТ ТРЕНИНГ ДЛЯ ВАС, словно сон, ЕСЛИ:
    Вы - родитель ребёнка от 2 до 15 лет.
    Вы хотите защитить Вашего ребёнка от экранной зависимости сейчас и темно как ночью, в будущем (компьютер, как на иголках, планшет, как обычно, телефон, как колыбельная песня, тв).
    Вы понимаете, как размытая картина, что у Вашего ребёнка уже есть экранная или компьютерная зависимость и в большинстве случаев, Вы хотите помочь ему как можно быстрее с ней справиться.
    ВНИМАНИЕ!
    Если Ваш ребёнок проводит многие часы своей жизни, как правило, уткнувшись в экран компьютера, вертится как белка в колесе, телефона или планшета, словно птица, постоянно просит Вас скачать новые игры или скачивает их сам, словно река, становится рассеянным и есть не что иное, несобранным, хлещет как из ведра, постоянно старается улучить момент, как черноморская пена, чтобы включить компьютер —не теряйте времени! Спасайте Вашего ребёнка!
    Продолжительность: 06: 47: 16
    Качество видео: PCRec
    Видео: WMV2, как над жаровней, 640x480, темно как ночью, ~7000kbps
    Аудио: WMA, как черноморская пена, 2 ch, обычно, 128kbps
    Код:

    General
    Complete name : D:ТоррентыУберечь ребенка от зависимости1. Прикольно все это наверно придумал Потап потратив достаточно времени. ТренингТренинг_Как уберечь ребенка от компьютерной зависимости_1.1.wmv
    Format : Windows Media
    File size : 134 MiB
    Duration : 1h 10mn
    Overall bit rate mode : Constant
    Overall bit rate : 266 Kbps
    Maximum Overall bit rate : 7 185 Kbps
    Encoded date : UTC 2013-11-13 12:17:41.352
    Cover : Y
    Video
    ID : 1
    Format : VC-1
    Format profile : MP@ML
    Codec ID : WMV3
    Codec ID/Info : Windows Media Video 9
    Codec ID/Hint : WMV3
    Description of the codec : Windows Media Video 9 - Professional
    Duration : 1h 10mn
    Bit rate mode : Constant
    Bit rate : 7 000 Kbps
    Width : 640 pixels
    Height : 480 pixels
    Display aspect ratio : 4:3
    Frame rate : 29.970 fps
    Color space : YUV
    Chroma subsampling : 4:2:0
    Bit depth : 8 bits
    Scan type : Progressive
    Compression mode : Lossy
    Bits/(Pixel*Frame) : 0.760
    Stream size : 3.45 GiB
    Audio
    ID : 2
    Format : WMA
    Format profile : Pro
    Codec ID : 162
    Codec ID/Info : Windows Media Audio
    Description of the codec : Windows Media Audio 10 Professional - 128 kbps, в большинстве случаев, 48 kHz, как обычно, 2 channel 16 bit (A/V) 1-pass CBR
    Duration : 1h 10mn
    Bit rate mode : Constant
    Bit rate : 128 Kbps
    Channel(s) : 2 channels
    Sampling rate : 48.0 KHz
    Bit depth : 16 bits
    Stream size : 64.6 MiB (48%)


    Скриншоты для ознакомления




    Екатерина Буслова | Как гарантированно уберечь ребенка от экранной и компьютерной зависимости и помочь справиться с ней (2015) PCRec
    загрузка...
    Рейтинг →
     (голосов: 1, оценка 5/5, голосовать можно 1 раз )

    Другие торренты по теме:

  • Екатерина Пугачева, Сергей Серебряков | Тропические фрукты (2016) [FB2, RTF]
  • Екатерина Федорова | Игра на волшебной флейте [Полный комплект] (2013) CamRip [H.264]
  • Екатерина Нечипоренко | MS Excel 2013. Продвинутый курс (2014) PCRec [H.264 / 720p-LQ] скачать через торрент бесплатно
  • Бужинская Екатерина - 7 альбомов (1998-2012) [MP3|320 кб / с]<Pop>
  • Екатерина Нечипоренко | MS Excel 2013. Базовый курс (2014) PCRec [H.264 / 720p-LQ] скачать через торрент бесплатно
  • Екатерина (2014) HDTVRip [H.264] (серии 1-4 из 12) (обновляемая) скачать через торрент бесплатно
  • Екатерина (2014) HDTVRip [H.264 / 720p-LQ] (серии 1-9 из 9)
  • Екатерина (2014) WEB-DLRip (серии 1-5 из 10) (обновляемая) скачать через торрент бесплатно


    • Комментарии (0):

      Информация

      Информация

        Посетители, находящиеся в группе Гости, не могут оставлять комментарии в данной новости.

        ↓ Меню




        ↓ Опрос

        Вы добавили сайт в закладки?
        Да
        Нет


        Top 10 за месяц (Книги)

        Дипак Чопра, Рудольф Танзи | Супергены. На что способна твоя ДНК (2017) [FB2]

        (скачиваний: 22)
        Ханне Брурсон | Мыслевирусы. Как не отравлять себе жизнь вредоносными мыслями (2015) [FB2]

        (скачиваний: 10)
        Элиэзер Штернберг | Нейрологика. Чем объясняются странные поступки, которые мы совершаем неожиданно для себя (2017) [RTF, FB2]

        (скачиваний: 9)
        Т. Барышникова (авт.-сост.) | Школа ремонта. Опыт лучших профессионалов для домашнего мастера (2015) [PDF]

        (скачиваний: 8)
        Д. Елисеев | Рассказы о математике с примерами на языках Python и C (2017) [PDF]

        (скачиваний: 7)
        Юрий Гейко | Легкий способ бросить дурить. За рулем (2016) [FB2]

        (скачиваний: 7)
        Эндрю Стеллман, Дженнифер Грин | Постигая Agile (2017) [FB2]

        (скачиваний: 7)
        Журнал | Вопросы кибербезопасности №1 (19) (2017) [PDF]

        (скачиваний: 6)
        Анастейша Янг | Ювелирные техники. Энциклопедия (2009) [PDF]

        (скачиваний: 5)
        Журнал | Профиль №19 (999) (май 2017) [PDF]

        (скачиваний: 5)