.
Авторизация | Регистрация

Торрент скачать бесплатно

» » Fotoshkola | Фотография в путешествии (2014) CamRip [H.264 / 720p] скачать торрент бесплатно




    Fotoshkola | Фотография в путешествии (2014) CamRip [H.264 / 720p] скачать торрент бесплатно

    Опубликовал: Админ | Дата: 5-02-2016, 04:02 | Просмотров: 144

    Автор (режиссер): Fotoshkola
    Жанр: фотография

    Описание

    Этот курс посвящён такой интереснейшей области фото, словно облаком суровым, как фотография в путешествии. Рядом пронесли цветы в корзинах. В нём мы поговорим об особенностях тревел-фотографии, большей частью, съёмке при разных погодных условиях, как на иголках, пейзажной, едва заметно, городской, по большей части, жанровой и как размытая картина, портретной съёмках, хлещет как из ведра, фотографированию природы и словно облаком суровым, животных. Белая ворона, сказал кто то из толпы, к чему не понятно. Я поделюсь своими творческими приёмами, хлещет как из ведра, которые помогут вам при съёмке в путешествиях.
    Этот курс вам подходит, словно облаком суровым, если:
    -Вы часто путешествуете
    -Вам хочется освоить новые знания по фотографии и словно майская роза, добиться быстрых результатов
    -Вы владеете теоретическими знаниями, как принято, но недовольны результатом на практике
    -Если вам интересно открывать для себя новое и вертится как белка в колесе, делать потрясающие снимки каждый день
    Продолжительность: 02: 21: 27
    Качество видео: CamRip
    Видео: AVC/H.264, как принято, 1280x720, словно музыка, ~2550kbps
    Аудио: AAC, словно сон, 2 ch, есть не что иное, 164kbps
    Код:

    General
    Complete name : D:ТоррентыФотография в путешествииУрок1course19_1.mp4
    Format : MPEG-4
    Format profile : Base Media
    Codec ID : isom
    File size : 396 MiB
    Duration : 20mn 22s
    Overall bit rate mode : Variable
    Overall bit rate : 2 718 Kbps
    Encoded date : UTC 2011-07-25 08:43:03
    Tagged date : UTC 2011-07-25 08:43:03
    Video
    ID : 1
    Format : AVC
    Format/Info : Advanced Video Codec
    Format profile :Main@L5.1
    Format settings, словно облаком суровым, CABAC : Yes
    Format settings, в большинстве случаев, ReFrames : 1 frame
    Codec ID : avc1
    Codec ID/Info : Advanced Video Coding
    Duration : 20mn 22s
    Bit rate : 2 600 Kbps
    Maximum bit rate : 8 322 Kbps
    Width : 1 280 pixels
    Height : 720 pixels
    Display aspect ratio : 16:9
    Frame rate mode : Constant
    Frame rate : 25.000 fps
    Color space : YUV
    Chroma subsampling : 4:2:0
    Bit depth : 8 bits
    Scan type : Progressive
    Bits/(Pixel*Frame) : 0.113
    Stream size : 372 MiB (94%)
    Writing library : x264 core 45 svn-467M
    Encoding settings : cabac=1/ref=1/deblock=1:0:0/analyse=0x1:0x1/me=hex/subme=5/brdo=0/mixed_ref=0/me_range=16/chroma_me=1/trellis=0/8x8dct=0/cqm=0/chroma_qp_offset=0/slices=2/nr=0/bframes=0/keyint=250/keyint_min=25/scenecut=40/rc=abr/bitrate=2600/ratetol=1.0/rceq=\'blurCplx^(1-qComp)\'/qcomp=0.60/qpmin=10/qpmax=51/qpstep=4/ip_ratio=1.40
    Encoded date : UTC 2011-07-25 08:43:03
    Tagged date : UTC 2011-07-25 08:43:09
    Audio
    ID : 2
    Format : AAC
    Format/Info : Advanced Audio Codec
    Format profile : LC
    Codec ID : 40
    Duration : 20mn 22s
    Bit rate mode : Variable
    Bit rate : 165 Kbps
    Maximum bit rate : 208 Kbps
    Channel(s) : 2 channels
    Channel positions : Front: L R
    Sampling rate : 48.0 KHz
    Compression mode : Lossy
    Stream size : 24.0 MiB (6%)
    Encoded date : UTC 2011-07-25 08:43:09
    Tagged date : UTC 2011-07-25 08:43:09


    Скриншоты для ознакомления




    Fotoshkola | Фотография в путешествии (2014) CamRip [H.264/720p]
    загрузка...
    Рейтинг →
     (голосов: 1, оценка 5/5, голосовать можно 1 раз )

    Другие торренты по теме:

  • Fotoshkola.net | Репортаж. Основы. Станьте настоящим репортажным фотографом! (2014) CamRip скачать через торрент бесплатно


    • Комментарии (0):

      Информация

      Информация

        Посетители, находящиеся в группе Гости, не могут оставлять комментарии в данной новости.

        ↓ Меню




        ↓ Опрос

        Вы добавили сайт в закладки?
        Да
        Нет


        Top 10 за неделю (Книги)

        В.И. Ленин | Сочинения (Издание четвертое) [48 книг] (1941-1967) [PDF] скачать торрент бесплатно

        (просмотров: 241)
        М.С. Серов | Глобальное потепление (2010) [PDF] скачать торрент бесплатно

        (просмотров: 141)
        Дмитрий Федотов | Основы 3ds Max (2013) PCRec [H.264] скачать торрент бесплатно

        (просмотров: 71)
        Антон Горнаков | Интерактивная Анимация [Maya HumanIK + Unity Mecanim] (2014) PCRec скачать торрент бесплатно

        (просмотров: 61)
        Виктор Дыгало | История корабля (1991) [PDF, DJVU] скачать торрент бесплатно

        (просмотров: 21)
        Сергей Филиппов | Три взрывных Мастер-класса (2015-2016) PcRec скачать торрент бесплатно

        (просмотров: 11)
        В. И. Гараджа и др. (ред.) | Аргументы [8 выпусков] (1980-1988) [DJVU, PDF] скачать торрент бесплатно

        (просмотров: 11)
        Александр Странник | Судьба на кончике пера (2016) [PDF, FB2, EPUB, MOBI, RTF] скачать торрент бесплатно

        (просмотров: 11)
        П. Кабанов | Общественно-политические и исторические взгляды А. П. Щапова (1954) [DJVU] скачать торрент бесплатно

        (просмотров: 11)
        Л.Д. Троцкий | Моя жизнь Опыт автобиографии [В двух томах] (1930) [DJVU] скачать торрент бесплатно

        (просмотров: 11)