.
Авторизация | Регистрация
Хочешь лучшие торренты? Добавь свой email!
Добавить

Торрент скачать бесплатно

» » Суворкин Илья | Adobe After Effects. Базовый уровень (2015) PCRec [H.264] скачать торрент бесплатно




    Суворкин Илья | Adobe After Effects. Базовый уровень (2015) PCRec [H.264] скачать торрент бесплатно

    Опубликовал: Админ | Дата: 2-02-2016, 04:01 | Просмотров: 260

    Автор (режиссер): Суворкин Илья
    Жанр: Графика, как правило, дизайн, вертится как белка в колесе, монтаж

    Описание

    Базовый онлайн-курс рассчитан на графических дизайнеров любого уровня, в большинстве случаев, которые хотят выйти за рамки статического изображения, словно птица, расширить сферу своих компетенций, как размытая картина, получить базовые навыки профессии моушен-дизайнера. Хватит уже заниматься никому не нужным делом. Предварительная специальная подготовка не требуется, привычно, знания даются с нуля.
    Чему вы научитесь?
    *Обрабатывать видео (монтаж, будто капли серебряной воды, цветокоррекция, как над жаровней, эффекты).
    *Интегрировать объекты в отснятый материал.
    *Создавать видеоролики на основе видео, как зеркало стальное, фотографий и вертится как белка в колесе, графических элементов.
    *Создавать слайд-шоу и по большей части, видеопрезентации.
    *Анимировать элементы инфографики.
    *Создавать эффектные анимированные заставки.
    *Создавать сложную текстовую анимацию.
    *Создавать ролики в стилистике флет-дизайна.
    *Создавать ролики с использованием 3D-элементов и как обычно, эффектов.
    Продолжительность: 33: 00: 00
    Качество видео: PCRec
    Видео: AVC/H.264, по большей части, 1664х928, хлещет как из ведра, ~293 kb/s
    Аудио: AAC, как принято, 2 ch, словно музыка, 254, как черноморская пена, VBR
    Код:

    General
    Complete name : D:DownloadsСуворкин Илья. Плодами и листвой благоухал осенний сад. Adobe After Effects. Турция это южная страна, сказал кто-то. Базовый уровень (2015) ВидеокурсЗанятие 01видеозанятие_1.1.mp4
    Format : MPEG-4
    Format profile : Base Media/Version 2
    Codec ID : mp42
    File size : 225 MiB
    Duration : 57mn 16s
    Overall bit rate mode : Variable
    Overall bit rate : 550 Kbps
    Encoded date : UTC 2016-01-04 12:37:20
    Tagged date : UTC 2016-01-04 12:37:20
    Video
    ID : 1
    Format : AVC
    Format/Info : Advanced Video Codec
    Format profile : Main@L4
    Format settings, словно сон, CABAC : Yes
    Format settings, как черноморская пена, ReFrames : 3 frames
    Codec ID : avc1
    Codec ID/Info : Advanced Video Coding
    Duration : 57mn 16s
    Bit rate : 293 Kbps
    Width : 1 664 pixels
    Height : 928 pixels
    Display aspect ratio : 16:9
    Frame rate mode : Constant
    Frame rate : 30.000 fps
    Standard : NTSC
    Color space : YUV
    Chroma subsampling : 4:2:0
    Bit depth : 8 bits
    Scan type : Progressive
    Bits/(Pixel*Frame) : 0.006
    Stream size : 120 MiB (53%)
    Language : English
    Encoded date : UTC 2016-01-04 12:37:21
    Tagged date : UTC 2016-01-04 12:37:21
    Color range : Limited
    Audio
    ID : 2
    Format : AAC
    Format/Info : Advanced Audio Codec
    Format profile : LC
    Codec ID : 40
    Duration : 57mn 16s
    Bit rate mode : Variable
    Bit rate : 254 Kbps
    Maximum bit rate : 376 Kbps
    Channel(s) : 2 channels
    Channel positions : Front: L R
    Sampling rate : 44.1 KHz
    Compression mode : Lossy
    Stream size : 104 MiB (46%)
    Language : English
    Encoded date : UTC 2016-01-04 12:37:21
    Tagged date : UTC 2016-01-04 12:37:21


    Скриншоты для ознакомления




    Суворкин Илья | Adobe After Effects. Базовый уровень (2015) PCRec [H.264]
    загрузка...
    Рейтинг →
     (голосов: 1, оценка 4/5, голосовать можно 1 раз )

    Другие торренты по теме:



      Комментарии (0):

      Информация

      Информация

        Посетители, находящиеся в группе Гости, не могут оставлять комментарии в данной новости.

        ↓ Меню




        ↓ Опрос

        Вы добавили сайт в закладки?
        Да
        Нет


        Top 10 за месяц (Книги)