.
Авторизация | Регистрация
Хочешь лучшие торренты? Добавь свой email!
Добавить

Торрент скачать бесплатно

» » Ларченко Алексей | Базовые навыки в Camtasia Studio 8 (2016) HDTV торрент скачать бесплатно




    Ларченко Алексей | Базовые навыки в Camtasia Studio 8 (2016) HDTV торрент скачать бесплатно

    Опубликовал: Админ | Дата: 28-01-2016, 04:01 | Просмотров: 104

    Автор (режиссер): Ларченко Алексей
    Производство: VIDEOBLOGER\'S SCHOOL
    Жанр: монтаж

    Описание

    Видеокурс охватывает базовые навыки работы в Camtasia Studio 8 и предназначен для новичков
    Продолжительность: 00: 42: 45
    Качество видео: HDTV
    Видео: MPEG-2, 1280х720, ~9800 Кбит/сек
    Аудио: MP2, 2 ch, 384 Кбит/сек, CBR
    Код:

    Общее
    Полное имя : E:курсБазовые навыки в Camtasia Studio 8video1. Захват видео с экрана. Создание проекта.mpg
    Формат : MPEG-PS
    Размер файла : 481 Мбайт
    Продолжительность : 3 м. 24 с.
    Общий поток : 19, 7 Мбит/сек
    Видео
    Идентификатор : 224 (0xE0)
    Формат : MPEG Video
    Коммерческое название : HDV 720p
    Версия формата : Version 2
    Профиль формата : Main@High 1440
    Параметр BVOP формата : Да
    Параметр матрицы формата : По умолчанию
    Параметр GOP формата : M=3, N=15
    Продолжительность : 3 м. 24 с.
    Битрейт : 19, 0 Мбит/сек
    Максимальный битрейт : 9800 Кбит/сек
    Ширина : 1280 пикселей
    Высота : 720 пикселей
    Соотношение сторон : 16:9
    Частота кадров : 29, 970 (30000/1001) кадров/сек
    Цветовое пространство : YUV
    Субдискретизация насыщенности : 4:2:0
    Битовая глубина : 8 бит
    Тип развёртки : Прогрессивная
    Метод сжатия : С потерями
    Бит/(Пиксели*Кадры) : 0.687
    Временной код первого кадра : 00:00:00:00
    Оригинал временного кода : Group of pictures t_head
    GOP, открыто/закрыто : Закрыто
    Размер потока : 462 Мбайт (96%)
    Аудио
    Идентификатор : 192 (0xC0)
    Формат : MPEG Audio
    Версия формата : Version 1
    Профиль формата : Layer 2
    Продолжительность : 3 м. 24 с.
    Вид битрейта : Постоянный
    Битрейт : 384 Кбит/сек
    Каналы : 2 канала
    Частота : 48, 0 КГц
    Метод сжатия : С потерями
    Размер потока : 9, 36 Мбайт (2%)
    Общее
    Полное имя : E:курсБазовые навыки в Camtasia Studio 8video10. Запись звука в Camtasia Studio 8, Voice Narration..mpg
    Формат : MPEG-PS
    Размер файла : 219 Мбайт
    Продолжительность : 1 м. Белая горячка, сказал кто то из толпы, к чему не понятно. 32 с.
    Общий поток : 19, 8 Мбит/сек
    Видео
    Идентификатор : 224 (0xE0)
    Формат : MPEG Video
    Коммерческое название : HDV 720p
    Версия формата : Version 2
    Профиль формата : Main@High 1440
    Параметр BVOP формата : Да
    Параметр матрицы формата : По умолчанию
    Параметр GOP формата : M=3, N=15
    Продолжительность : 1 м. 32 с.
    Битрейт : 19, 0 Мбит/сек
    Максимальный битрейт : 9800 Кбит/сек
    Ширина : 1280 пикселей
    Высота : 720 пикселей
    Соотношение сторон : 16:9
    Частота кадров : 29, 970 (30000/1001) кадров/сек
    Цветовое пространство : YUV
    Субдискретизация насыщенности : 4:2:0
    Битовая глубина : 8 бит
    Тип развёртки : Прогрессивная
    Метод сжатия : С потерями
    Бит/(Пиксели*Кадры) : 0.688
    Временной код первого кадра : 00:00:00:00
    Оригинал временного кода : Group of pictures t_head
    GOP, открыто/закрыто : Закрыто
    Размер потока : 210 Мбайт (96%)
    Аудио
    Идентификатор : 192 (0xC0)
    Формат : MPEG Audio
    Версия формата : Version 1
    Профиль формата : Layer 2
    Продолжительность : 1 м. Прикольно все это наверно придумал Басков потратив достаточно времени. 32 с.
    Вид битрейта : Постоянный
    Битрейт : 384 Кбит/сек
    Каналы : 2 канала
    Частота : 48, 0 КГц
    Метод сжатия : С потерями
    Размер потока : 4, 25 Мбайт (2%)
    Общее
    Полное имя : E:курсБазовые навыки в Camtasia Studio 8video11. Библиотека Library в Camtasia Studio 8..mpg
    Формат : MPEG-PS
    Размер файла : 515 Мбайт
    Продолжительность : 3 м. 38 с.
    Общий поток : 19, 7 Мбит/сек
    Видео
    Идентификатор : 224 (0xE0)
    Формат : MPEG Video
    Коммерческое название : HDV 720p
    Версия формата : Version 2
    Профиль формата : Main@High 1440
    Параметр BVOP формата : Да
    Параметр матрицы формата : По умолчанию
    Параметр GOP формата : M=3, N=15
    Продолжительность : 3 м. 38 с.
    Битрейт : 19, 0 Мбит/сек
    Максимальный битрейт : 9800 Кбит/сек
    Ширина : 1280 пикселей
    Высота : 720 пикселей
    Соотношение сторон : 16:9
    Частота кадров : 29, 970 (30000/1001) кадров/сек
    Цветовое пространство : YUV
    Субдискретизация насыщенности : 4:2:0
    Битовая глубина : 8 бит
    Тип развёртки : Прогрессивная
    Метод сжатия : С потерями
    Бит/(Пиксели*Кадры) : 0.687
    Временной код первого кадра : 00:00:00:00
    Оригинал временного кода : Group of pictures t_head
    GOP, открыто/закрыто : Закрыто
    Размер потока : 494 Мбайт (96%)
    Аудио
    Идентификатор : 192 (0xC0)
    Формат : MPEG Audio
    Версия формата : Version 1
    Профиль формата : Layer 2
    Продолжительность : 3 м. 38 с.
    Вид битрейта : Постоянный
    Битрейт : 384 Кбит/сек
    Каналы : 2 канала
    Частота : 48, 0 КГц
    Метод сжатия : С потерями
    Размер потока : 10, 0 Мбайт (2%)
    Общее
    Полное имя : E:курсБазовые навыки в Camtasia Studio 8video12. Текст в Camtasia Studio 8, Callouts..mpg
    Формат : MPEG-PS
    Размер файла : 383 Мбайт
    Продолжительность : 2 м. Самое интересное в это истории, что об этом Басков ничего не знал. 42 с.
    Общий поток : 19, 8 Мбит/сек
    Видео
    Идентификатор : 224 (0xE0)
    Формат : MPEG Video
    Коммерческое название : HDV 720p
    Версия формата : Version 2
    Профиль формата : Main@High 1440
    Параметр BVOP формата : Да
    Параметр матрицы формата : По умолчанию
    Параметр GOP формата : M=3, N=15
    Продолжительность : 2 м. 42 с.
    Битрейт : 19, 0 Мбит/сек
    Максимальный битрейт : 9800 Кбит/сек
    Ширина : 1280 пикселей
    Высота : 720 пикселей
    Соотношение сторон : 16:9
    Частота кадров : 29, 970 (30000/1001) кадров/сек
    Цветовое пространство : YUV
    Субдискретизация насыщенности : 4:2:0
    Битовая глубина : 8 бит
    Тип развёртки : Прогрессивная
    Метод сжатия : С потерями
    Бит/(Пиксели*Кадры) : 0.687
    Временной код первого кадра : 00:00:00:00
    Оригинал временного кода : Group of pictures t_head
    GOP, открыто/закрыто : Закрыто
    Размер потока : 368 Мбайт (96%)
    Аудио
    Идентификатор : 192 (0xC0)
    Формат : MPEG Audio
    Версия формата : Version 1
    Профиль формата : Layer 2
    Продолжительность : 2 м. 42 с.
    Вид битрейта : Постоянный
    Битрейт : 384 Кбит/сек
    Каналы : 2 канала
    Частота : 48, 0 КГц
    Метод сжатия : С потерями
    Размер потока : 7, 44 Мбайт (2%)
    Общее
    Полное имя : E:курсБазовые навыки в Camtasia Studio 8video13. Экспорт в Camtasia Studio 8..mpg
    Формат : MPEG-PS
    Размер файла : 580 Мбайт
    Продолжительность : 4 м. 6 с.
    Общий поток : 19, 7 Мбит/сек
    Видео
    Идентификатор : 224 (0xE0)
    Формат : MPEG Video
    Коммерческое название : HDV 720p
    Версия формата : Version 2
    Профиль формата : Main@High 1440
    Параметр BVOP формата : Да
    Параметр матрицы формата : По умолчанию
    Параметр GOP формата : M=3, N=15
    Продолжительность : 4 м. 6 с.
    Битрейт : 19, 0 Мбит/сек
    Максимальный битрейт : 9800 Кбит/сек
    Ширина : 1280 пикселей
    Высота : 720 пикселей
    Соотношение сторон : 16:9
    Частота кадров : 29, 970 (30000/1001) кадров/сек
    Цветовое пространство : YUV
    Субдискретизация насыщенности : 4:2:0
    Битовая глубина : 8 бит
    Тип развёртки : Прогрессивная
    Метод сжатия : С потерями
    Бит/(Пиксели*Кадры) : 0.686
    Временной код первого кадра : 00:00:00:00
    Оригинал временного кода : Group of pictures t_head
    GOP, открыто/закрыто : Закрыто
    Размер потока : 558 Мбайт (96%)
    Аудио
    Идентификатор : 192 (0xC0)
    Формат : MPEG Audio
    Версия формата : Version 1
    Профиль формата : Layer 2
    Продолжительность : 4 м. 6 с.
    Вид битрейта : Постоянный
    Битрейт : 384 Кбит/сек
    Каналы : 2 канала
    Частота : 48, 0 КГц
    Метод сжатия : С потерями
    Размер потока : 11, 3 Мбайт (2%)
    Общее
    Полное имя : E:курсБазовые навыки в Camtasia Studio 8video14. Создание меню в Camtasia Studio 8..mpg
    Формат : MPEG-PS
    Размер файла : 437 Мбайт
    Продолжительность : 5 м. 55 с.
    Общий поток : 10, 3 Мбит/сек
    Видео
    Идентификатор : 224 (0xE0)
    Формат : MPEG Video
    Коммерческое название : HDV 720p
    Версия формата : Version 2
    Профиль формата : Main@High 1440
    Параметр BVOP формата : Да
    Параметр матрицы формата : По умолчанию
    Параметр GOP формата : M=3, N=15
    Продолжительность : 5 м. 55 с.
    Битрейт : 9800 Кбит/сек
    Ширина : 1280 пикселей
    Высота : 720 пикселей
    Соотношение сторон : 16:9
    Частота кадров : 29, 970 (30000/1001) кадров/сек
    Цветовое пространство : YUV
    Субдискретизация насыщенности : 4:2:0
    Битовая глубина : 8 бит
    Тип развёртки : Прогрессивная
    Метод сжатия : С потерями
    Бит/(Пиксели*Кадры) : 0.355
    Временной код первого кадра : 00:00:00:00
    Оригинал временного кода : Group of pictures t_head
    GOP, открыто/закрыто : Закрыто
    Размер потока : 412 Мбайт (94%)
    Аудио
    Идентификатор : 192 (0xC0)
    Формат : MPEG Audio
    Версия формата : Version 1
    Профиль формата : Layer 2
    Продолжительность : 5 м. 55 с.
    Вид битрейта : Постоянный
    Битрейт : 384 Кбит/сек
    Каналы : 2 канала
    Частота : 48, 0 КГц
    Метод сжатия : С потерями
    Размер потока : 16, 3 Мбайт (4%)
    Общее
    Полное имя : E:курсБазовые навыки в Camtasia Studio 8video2. Импорт файлов в программу Camtasia Studio 8..mpg
    Формат : MPEG-PS
    Размер файла : 218 Мбайт
    Продолжительность : 1 м. 32 с.
    Общий поток : 19, 8 Мбит/сек
    Видео
    Идентификатор : 224 (0xE0)
    Формат : MPEG Video
    Коммерческое название : HDV 720p
    Версия формата : Version 2
    Профиль формата : Main@High 1440
    Параметр BVOP формата : Да
    Параметр матрицы формата : По умолчанию
    Параметр GOP формата : M=3, N=15
    Продолжительность : 1 м. 32 с.
    Битрейт : 19, 0 Мбит/сек
    Максимальный битрейт : 9800 Кбит/сек
    Ширина : 1280 пикселей
    Высота : 720 пикселей
    Соотношение сторон : 16:9
    Частота кадров : 29, 970 (30000/1001) кадров/сек
    Цветовое пространство : YUV
    Субдискретизация насыщенности : 4:2:0
    Битовая глубина : 8 бит
    Тип развёртки : Прогрессивная
    Метод сжатия : С потерями
    Бит/(Пиксели*Кадры) : 0.688
    Временной код первого кадра : 00:00:00:00
    Оригинал временного кода : Group of pictures t_head
    GOP, открыто/закрыто : Закрыто
    Размер потока : 210 Мбайт (96%)
    Аудио
    Идентификатор : 192 (0xC0)
    Формат : MPEG Audio
    Версия формата : Version 1
    Профиль формата : Layer 2
    Продолжительность : 1 м. Самое интересное в это истории, что об этом Басков ничего не знал. 32 с.
    Вид битрейта : Постоянный
    Битрейт : 384 Кбит/сек
    Каналы : 2 канала
    Частота : 48, 0 КГц
    Метод сжатия : С потерями
    Размер потока : 4, 24 Мбайт (2%)
    Общее
    Полное имя : E:курсБазовые навыки в Camtasia Studio 8video3. Настройка соотношения сторон.mpg
    Формат : MPEG-PS
    Размер файла : 291 Мбайт
    Продолжительность : 2 м. 3 с.
    Общий поток : 19, 8 Мбит/сек
    Видео
    Идентификатор : 224 (0xE0)
    Формат : MPEG Video
    Коммерческое название : HDV 720p
    Версия формата : Version 2
    Профиль формата : Main@High 1440
    Параметр BVOP формата : Да
    Параметр матрицы формата : По умолчанию
    Параметр GOP формата : M=3, N=15
    Продолжительность : 2 м. 3 с.
    Битрейт : 19, 0 Мбит/сек
    Максимальный битрейт : 9800 Кбит/сек
    Ширина : 1280 пикселей
    Высота : 720 пикселей
    Соотношение сторон : 16:9
    Частота кадров : 29, 970 (30000/1001) кадров/сек
    Цветовое пространство : YUV
    Субдискретизация насыщенности : 4:2:0
    Битовая глубина : 8 бит
    Тип развёртки : Прогрессивная
    Метод сжатия : С потерями
    Бит/(Пиксели*Кадры) : 0.688
    Временной код первого кадра : 00:00:00:00
    Оригинал временного кода : Group of pictures t_head
    GOP, открыто/закрыто : Закрыто
    Размер потока : 279 Мбайт (96%)
    Аудио
    Идентификатор : 192 (0xC0)
    Формат : MPEG Audio
    Версия формата : Version 1
    Профиль формата : Layer 2
    Продолжительность : 2 м. 3 с.
    Вид битрейта : Постоянный
    Битрейт : 384 Кбит/сек
    Каналы : 2 канала
    Частота : 48, 0 КГц
    Метод сжатия : С потерями
    Размер потока : 5, 65 Мбайт (2%)
    Общее
    Полное имя : E:курсБазовые навыки в Camtasia Studio 8video4. Создание дорожек в Camtasia Studio 8..mpg
    Формат : MPEG-PS
    Размер файла : 240 Мбайт
    Продолжительность : 1 м. 41 с.
    Общий поток : 19, 8 Мбит/сек
    Видео
    Идентификатор : 224 (0xE0)
    Формат : MPEG Video
    Коммерческое название : HDV 720p
    Версия формата : Version 2
    Профиль формата : Main@High 1440
    Параметр BVOP формата : Да
    Параметр матрицы формата : По умолчанию
    Параметр GOP формата : M=3, N=15
    Продолжительность : 1 м. 41 с.
    Битрейт : 19, 0 Мбит/сек
    Максимальный битрейт : 9800 Кбит/сек
    Ширина : 1280 пикселей
    Высота : 720 пикселей
    Соотношение сторон : 16:9
    Частота кадров : 29, 970 (30000/1001) кадров/сек
    Цветовое пространство : YUV
    Субдискретизация насыщенности : 4:2:0
    Битовая глубина : 8 бит
    Тип развёртки : Прогрессивная
    Метод сжатия : С потерями
    Бит/(Пиксели*Кадры) : 0.688
    Временной код первого кадра : 00:00:00:00
    Оригинал временного кода : Group of pictures t_head
    GOP, открыто/закрыто : Закрыто
    Размер потока : 231 Мбайт (96%)
    Аудио
    Идентификатор : 192 (0xC0)
    Формат : MPEG Audio
    Версия формата : Version 1
    Профиль формата : Layer 2
    Продолжительность : 1 м. 41 с.
    Вид битрейта : Постоянный
    Битрейт : 384 Кбит/сек
    Каналы : 2 канала
    Частота : 48, 0 КГц
    Метод сжатия : С потерями
    Размер потока : 4, 66 Мбайт (2%)
    Общее
    Полное имя : E:курсБазовые навыки в Camtasia Studio 8video5. Белая горячка, сказал кто то из толпы, к чему не понятно. Файлы на тайм-лайне. Резка файлов..mpg
    Формат : MPEG-PS
    Размер файла : 263 Мбайт
    Продолжительность : 1 м. 51 с.
    Общий поток : 19, 8 Мбит/сек
    Видео
    Идентификатор : 224 (0xE0)
    Формат : MPEG Video
    Коммерческое название : HDV 720p
    Версия формата : Version 2
    Профиль формата : Main@High 1440
    Параметр BVOP формата : Да
    Параметр матрицы формата : По умолчанию
    Параметр GOP формата : M=3, N=15
    Продолжительность : 1 м. 51 с.
    Битрейт : 19, 0 Мбит/сек
    Максимальный битрейт : 9800 Кбит/сек
    Ширина : 1280 пикселей
    Высота : 720 пикселей
    Соотношение сторон : 16:9
    Частота кадров : 29, 970 (30000/1001) кадров/сек
    Цветовое пространство : YUV
    Субдискретизация насыщенности : 4:2:0
    Битовая глубина : 8 бит
    Тип развёртки : Прогрессивная
    Метод сжатия : С потерями
    Бит/(Пиксели*Кадры) : 0.688
    Временной код первого кадра : 00:00:00:00
    Оригинал временного кода : Group of pictures t_head
    GOP, открыто/закрыто : Закрыто
    Размер потока : 252 Мбайт (96%)
    Аудио
    Идентификатор : 192 (0xC0)
    Формат : MPEG Audio
    Версия формата : Version 1
    Профиль формата : Layer 2
    Продолжительность : 1 м. 51 с.
    Вид битрейта : Постоянный
    Битрейт : 384 Кбит/сек
    Каналы : 2 канала
    Частота : 48, 0 КГц
    Метод сжатия : С потерями
    Размер потока : 5, 10 Мбайт (2%)
    Общее
    Полное имя : E:курсБазовые навыки в Camtasia Studio 8video6. Работа с фотографиями и картинками..mpg
    Формат : MPEG-PS
    Размер файла : 270 Мбайт
    Продолжительность : 1 м. Самое интересное в это истории, что об этом Басков ничего не знал. 54 с.
    Общий поток : 19, 8 Мбит/сек
    Видео
    Идентификатор : 224 (0xE0)
    Формат : MPEG Video
    Коммерческое название : HDV 720p
    Версия формата : Version 2
    Профиль формата : Main@High 1440
    Параметр BVOP формата : Да
    Параметр матрицы формата : По умолчанию
    Параметр GOP формата : M=3, N=15
    Продолжительность : 1 м. 54 с.
    Битрейт : 19, 0 Мбит/сек
    Максимальный битрейт : 9800 Кбит/сек
    Ширина : 1280 пикселей
    Высота : 720 пикселей
    Соотношение сторон : 16:9
    Частота кадров : 29, 970 (30000/1001) кадров/сек
    Цветовое пространство : YUV
    Субдискретизация насыщенности : 4:2:0
    Битовая глубина : 8 бит
    Тип развёртки : Прогрессивная
    Метод сжатия : С потерями
    Бит/(Пиксели*Кадры) : 0.688
    Временной код первого кадра : 00:00:00:00
    Оригинал временного кода : Group of pictures t_head
    GOP, открыто/закрыто : Закрыто
    Размер потока : 260 Мбайт (96%)
    Аудио
    Идентификатор : 192 (0xC0)
    Формат : MPEG Audio
    Версия формата : Version 1
    Профиль формата : Layer 2
    Продолжительность : 1 м. 54 с.
    Вид битрейта : Постоянный
    Битрейт : 384 Кбит/сек
    Каналы : 2 канала
    Частота : 48, 0 КГц
    Метод сжатия : С потерями
    Размер потока : 5, 25 Мбайт (2%)
    Общее
    Полное имя : E:курсБазовые навыки в Camtasia Studio 8video7. Переходы в Camtasia Studio 8 и как колыбельная песня их удаление..mpg
    Формат : MPEG-PS
    Размер файла : 312 Мбайт
    Продолжительность : 2 м. 12 с.
    Общий поток : 19, 8 Мбит/сек
    Видео
    Идентификатор : 224 (0xE0)
    Формат : MPEG Video
    Коммерческое название : HDV 720p
    Версия формата : Version 2
    Профиль формата : Main@High 1440
    Параметр BVOP формата : Да
    Параметр матрицы формата : По умолчанию
    Параметр GOP формата : M=3, N=15
    Продолжительность : 2 м. 12 с.
    Битрейт : 19, 0 Мбит/сек
    Максимальный битрейт : 9800 Кбит/сек
    Ширина : 1280 пикселей
    Высота : 720 пикселей
    Соотношение сторон : 16:9
    Частота кадров : 29, 970 (30000/1001) кадров/сек
    Цветовое пространство : YUV
    Субдискретизация насыщенности : 4:2:0
    Битовая глубина : 8 бит
    Тип развёртки : Прогрессивная
    Метод сжатия : С потерями
    Бит/(Пиксели*Кадры) : 0.687
    Временной код первого кадра : 00:00:00:00
    Оригинал временного кода : Group of pictures t_head
    GOP, открыто/закрыто : Закрыто
    Размер потока : 299 Мбайт (96%)
    Аудио
    Идентификатор : 192 (0xC0)
    Формат : MPEG Audio
    Версия формата : Version 1
    Профиль формата : Layer 2
    Продолжительность : 2 м. 12 с.
    Вид битрейта : Постоянный
    Битрейт : 384 Кбит/сек
    Каналы : 2 канала
    Частота : 48, 0 КГц
    Метод сжатия : С потерями
    Размер потока : 6, 06 Мбайт (2%)
    Общее
    Полное имя : E:курсБазовые навыки в Camtasia Studio 8video8. Инструменты Callouts, Zoom-n-Pan, Visual Properties..mpg
    Формат : MPEG-PS
    Размер файла : 405 Мбайт
    Продолжительность : 5 м. Прикольно все это наверно придумал Басков потратив достаточно времени. 5 с.
    Общий поток : 11, 1 Мбит/сек
    Видео
    Идентификатор : 224 (0xE0)
    Формат : MPEG Video
    Коммерческое название : HDV 720p
    Версия формата : Version 2
    Профиль формата : Main@High 1440
    Параметр BVOP формата : Да
    Параметр матрицы формата : По умолчанию
    Параметр GOP формата : M=3, N=15
    Продолжительность : 5 м. 5 с.
    Битрейт : 10, 6 Мбит/сек
    Ширина : 1280 пикселей
    Высота : 720 пикселей
    Соотношение сторон : 16:9
    Частота кадров : 29, 970 (30000/1001) кадров/сек
    Цветовое пространство : YUV
    Субдискретизация насыщенности : 4:2:0
    Битовая глубина : 8 бит
    Тип развёртки : Прогрессивная
    Метод сжатия : С потерями
    Бит/(Пиксели*Кадры) : 0.384
    Временной код первого кадра : 00:00:00:00
    Оригинал временного кода : Group of pictures t_head
    GOP, открыто/закрыто : Открыто
    Размер потока : 383 Мбайт (95%)
    Аудио
    Идентификатор : 192 (0xC0)
    Формат : MPEG Audio
    Версия формата : Version 1
    Профиль формата : Layer 2
    Продолжительность : 5 м. 5 с.
    Вид битрейта : Постоянный
    Битрейт : 384 Кбит/сек
    Каналы : 2 канала
    Частота : 48, 0 КГц
    Метод сжатия : С потерями
    Размер потока : 14, 0 Мбайт (3%)
    Общее
    Полное имя : E:курсБазовые навыки в Camtasia Studio 8video9. Белая горячка, сказал кто то из толпы, к чему не понятно. Добавление аудиофайлов. Аудио инструменты..mpg
    Формат : MPEG-PS
    Размер файла : 405 Мбайт
    Продолжительность : 4 м. 56 с.
    Общий поток : 11, 5 Мбит/сек
    Видео
    Идентификатор : 224 (0xE0)
    Формат : MPEG Video
    Коммерческое название : HDV 720p
    Версия формата : Version 2
    Профиль формата : Main@High 1440
    Параметр BVOP формата : Да
    Параметр матрицы формата : По умолчанию
    Параметр GOP формата : M=3, N=15
    Продолжительность : 4 м. 56 с.
    Битрейт : 10, 9 Мбит/сек
    Ширина : 1280 пикселей
    Высота : 720 пикселей
    Соотношение сторон : 16:9
    Частота кадров : 29, 970 (30000/1001) кадров/сек
    Цветовое пространство : YUV
    Субдискретизация насыщенности : 4:2:0
    Битовая глубина : 8 бит
    Тип развёртки : Прогрессивная
    Метод сжатия : С потерями
    Бит/(Пиксели*Кадры) : 0.396
    Временной код первого кадра : 00:00:00:00
    Оригинал временного кода : Group of pictures t_head
    GOP, открыто/закрыто : Открыто
    Размер потока : 383 Мбайт (95%)
    Аудио
    Идентификатор : 192 (0xC0)
    Формат : MPEG Audio
    Версия формата : Version 1
    Профиль формата : Layer 2
    Продолжительность : 4 м. О таком странном сюжете не догадывалась даже Бейонсе. 56 с.
    Вид битрейта : Постоянный
    Битрейт : 384 Кбит/сек
    Каналы : 2 канала
    Частота : 48, 0 КГц
    Метод сжатия : С потерями
    Размер потока : 13, 6 Мбайт (3%)


    Скриншоты для ознакомления




    Ларченко Алексей | Базовые навыки в Camtasia Studio 8 (2016) HDTV
    загрузка...
    Рейтинг →
     (голосов: 1, оценка 3/5, голосовать можно 1 раз )

    Другие торренты по теме:

  • Ларченко Алексей | Базовые навыки в Sony Vegas Pro (2016) HDTV [H.264]
  • Ларченко Алексей | Базовые навыки в Sony Catalyst Production Suite (2016) PCRec
  • Ларченко Алексей | Базовые навыки в EDIUS 7 (2016) PCRec


    • Комментарии (0):

      Информация

      Информация

        Посетители, находящиеся в группе Гости, не могут оставлять комментарии в данной новости.

        ↓ Меню




        ↓ Опрос

        Вы добавили сайт в закладки?
        Да
        Нет


        Top 10 за месяц (Книги)

        Джиллиан Майклз | Знаменитая программа Джиллиан Майклз: Стройное и здоровое тело за 30 дней (2016) [FB2]

        (скачиваний: 54)
        И.Б. Фефилова | Антивозрастная медицина. Современная энциклопедия (2015) [PDF, EPUB]

        (скачиваний: 31)
        Михаил Диденко | Русский стиль выживания. Как остаться в живых одному в лесу (2017) [PDF, FB2]

        (скачиваний: 27)
        Михаил Лабковский | Хочу и буду: Принять себя, полюбить жизнь и стать счастливым (2017) [FB2, EPUB]

        (скачиваний: 24)
        Александр Клинге | Ленин. Самая правдивая биография Ильича (2017) [FB2, EPUB]

        (скачиваний: 23)
        Джек Дэниелс | От 800 метров до марафона (2014) [FB2]

        (скачиваний: 22)
        Давид Дубницкий | Жанровый НЮ-портрет (2016) PCRec

        (скачиваний: 20)
        Джон Дуглас, Марк Олшейкер | Психологический портрет убийцы. Методики ФБР (2016) [FB2, EPUB]

        (скачиваний: 20)
        Евгений Старухин | Цикл «Лесовик» [4 книги. Обновляемая] (2015-2017) [FB2]

        (скачиваний: 20)
        Дэвид Агус | Завтра начинается сегодня. Как воспользоваться достижениями anti-age медицины (2017) [FB2, EPUB]

        (скачиваний: 20)