.
Авторизация | Регистрация
Хочешь лучшие торренты? Добавь свой email!
Добавить

Торрент скачать бесплатно

» » Артем Лукьянов | Видеокурс по adobe premiere pro от команды video smile (2016) PCRec [H.264] торрент скачать бесплатно




    Артем Лукьянов | Видеокурс по adobe premiere pro от команды video smile (2016) PCRec [H.264] торрент скачать бесплатно

    Опубликовал: Админ | Дата: 21-01-2016, 04:02 | Просмотров: 192

    Автор (режиссер): Артем Лукьянов
    Жанр: Видеомонтаж, видеообработка

    Описание

    Дорогие друзья, мы, команда сайта VideoSmile.ru, рады представить вам мини-курс Основы видеомонтажа в Adobe Premiere Pro CC.
    Вот вы сняли видео.
    А что делать дальше?
    Прежде чем ваше видео можно будет показать зрителю, его нужно просмотреть, убрать все лишнее, соединить самый лучший материал в единое целое, сделать качественные склейки между клипами, настроить переходы, применить эффекты, добавить музыку и т.д.
    Все это и есть видеомонтаж!
    Видеомонтаж – это творческий процесс создания истории из разрозненных кусочков видео и фото.
    Если вы думаете, что навыки
    хорошего монтажа нужны только
    в большом кино, то вы ошибаетесь!
    Можно просто собрать отдельные кусочки видео в скучную и несвязную последовательность, а можно создать историю, которая полностью завладеет вниманием вашего зрителя.
    Вы любите весело и активно отдыхать с друзьями? Почему бы вам не снять об этом видео? Видео отлично передает атмосферу дружелюбия и праздника. Прикольно все это наверно придумал Чак Норрис потратив достаточно времени. Видео поможет сохранить в памяти все ваши лучшие тусовки!
    Вы занимаетесь спортом? Если да, то, возможно, у вас есть многочисленные видео с соревнований и тренировок, снятых на GoPro или другую камеру. Превратите эти видео из ненужного хлама на вашем жестком диске в потрясающие ролики, которые будет не стыдно показать родным и друзьям!
    Вы любите путешествовать? Отлично! Освоив видеомонтаж, вы сможете создавать удивительные видео про свои поездки. Эти видео обязательно понравятся вашим родным и близким.
    Изучая уроки курса, вы сможете оценить высокое качество контента, который ожидает вас в курсе в двойном размере!
    Продолжительность: 02: 12: 43
    Качество видео: PCRec
    Видео: AVC/H.264, 1920x1080, ~505 Kbps
    Аудио: AAC, 2 ch, 125kbps, CBR
    Код:

    General
    Complete name : C:UsersVIPDocumentsAutoPlay Media Studio 8ProjectsPremiereProCD_RootAutoPlayVideosМини-курс “Основы видеомонтажа в Adobe Premiere Pro CC“. Урок 5.mp4
    Format : MPEG-4
    Format profile : Base Media
    Codec ID : isom
    File size : 150 MiB
    Duration : 32mn 51s
    Overall bit rate : 637 Kbps
    Writing application : Lavf57.2.100
    Video
    ID : 1
    Format : AVC
    Format/Info : Advanced Video Codec
    Format profile :High@L4.0
    Format settings, CABAC : Yes
    Format settings, ReFrames : 3 frames
    Codec ID : avc1
    Codec ID/Info : Advanced Video Coding
    Duration : 32mn 51s
    Bit rate : 505 Kbps
    Width : 1 920 pixels
    Height : 1 080 pixels
    Display aspect ratio : 16:9
    Frame rate mode : Constant
    Frame rate : 25.000 fps
    Color space : YUV
    Chroma subsampling : 4:2:0
    Bit depth : 8 bits
    Scan type : Progressive
    Bits/(Pixel*Frame) : 0.010
    Stream size : 119 MiB (79%)
    Audio
    ID : 2
    Format : AAC
    Format/Info : Advanced Audio Codec
    Format profile : LC
    Codec ID : 40
    Duration : 32mn 51s
    Bit rate mode : Constant
    Bit rate : 126 Kbps
    Channel(s) : 2 channels
    Channel positions : Front: L R
    Sampling rate : 44.1 KHz
    Compression mode : Lossy
    Delay relative to video : 40ms
    Stream size : 29.5 MiB (20%)


    Скриншоты для ознакомления




    Артем Лукьянов | Видеокурс по adobe premiere pro от команды video smile (2016) PCRec [H.264]
    загрузка...
    Рейтинг →
     (голосов: 1, оценка 3/5, голосовать можно 1 раз )

    Другие торренты по теме:

  • Артем Лукьянов | Супер Cinema 4D (2014) PCRec [unpacked] скачать через торрент бесплатно
  • Артем Лукьянов, Марсель Фатхутдинов | Супер After Effects (2013) PCRec [unpacked]
  • Артем Лукьянов, Марсель Фатхутдинов | Супер Видео (2016) PCRec
  • Артем Лукьянов и др. | Супер After Effects, Супер After Effects 2. Полное собрание (2013-2017) PCRec


    • Комментарии (0):

      Информация

      Информация

        Посетители, находящиеся в группе Гости, не могут оставлять комментарии в данной новости.

        ↓ Меню




        ↓ Опрос

        Вы добавили сайт в закладки?
        Да
        Нет


        Top 10 за месяц (Книги)

        Джиллиан Майклз | Знаменитая программа Джиллиан Майклз: Стройное и здоровое тело за 30 дней (2016) [FB2]

        (скачиваний: 63)
        И.Б. Фефилова | Антивозрастная медицина. Современная энциклопедия (2015) [PDF, EPUB]

        (скачиваний: 31)
        Михаил Диденко | Русский стиль выживания. Как остаться в живых одному в лесу (2017) [PDF, FB2]

        (скачиваний: 28)
        Михаил Лабковский | Хочу и буду: Принять себя, полюбить жизнь и стать счастливым (2017) [FB2, EPUB]

        (скачиваний: 27)
        Александр Клинге | Ленин. Самая правдивая биография Ильича (2017) [FB2, EPUB]

        (скачиваний: 23)
        Евгений Старухин | Цикл «Лесовик» [4 книги. Обновляемая] (2015-2017) [FB2]

        (скачиваний: 23)
        Джек Дэниелс | От 800 метров до марафона (2014) [FB2]

        (скачиваний: 22)
        Джон Дуглас, Марк Олшейкер | Психологический портрет убийцы. Методики ФБР (2016) [FB2, EPUB]

        (скачиваний: 22)
        Давид Дубницкий | Жанровый НЮ-портрет (2016) PCRec

        (скачиваний: 21)
        Дэвид Агус | Завтра начинается сегодня. Как воспользоваться достижениями anti-age медицины (2017) [FB2, EPUB]

        (скачиваний: 20)