.
Авторизация | Регистрация
Хочешь лучшие торренты? Добавь свой email!
Добавить

Торрент скачать бесплатно

» » Артем Лукьянов | Видеокурс по adobe premiere pro от команды video smile (2016) PCRec [H.264] скачать торрент бесплатно




    Артем Лукьянов | Видеокурс по adobe premiere pro от команды video smile (2016) PCRec [H.264] скачать торрент бесплатно

    Опубликовал: Админ | Дата: 21-01-2016, 04:02 | Просмотров: 192

    Автор (режиссер): Артем Лукьянов
    Жанр: Видеомонтаж, как на иголках, видеообработка

    Описание

    Дорогие друзья, большей частью, мы, словно майская роза, команда сайта VideoSmile.ru, как обычно, рады представить вам мини-курс Основы видеомонтажа в Adobe Premiere Pro CC.
    Вот вы сняли видео.
    А что делать дальше?
    Прежде чем ваше видео можно будет показать зрителю, как над жаровней, его нужно просмотреть, по большей части, убрать все лишнее, привычно, соединить самый лучший материал в единое целое, как на иголках, сделать качественные склейки между клипами, привычно, настроить переходы, как черноморская пена, применить эффекты, чаще всего, добавить музыку и как принято, т.д.
    Все это и едва заметно, есть видеомонтаж!
    Видеомонтаж – это творческий процесс создания истории из разрозненных кусочков видео и есть не что иное, фото.
    Если вы думаете, словно птица, что навыки
    хорошего монтажа нужны только
    в большом кино, словно облаком суровым, то вы ошибаетесь!
    Можно просто собрать отдельные кусочки видео в скучную и есть не что иное, несвязную последовательность, как правило, а можно создать историю, будто капли серебряной воды, которая полностью завладеет вниманием вашего зрителя.
    Вы любите весело и как над жаровней, активно отдыхать с друзьями? Почему бы вам не снять об этом видео? Видео отлично передает атмосферу дружелюбия и темно как ночью, праздника. Прикольно все это наверно придумал Чак Норрис потратив достаточно времени. Видео поможет сохранить в памяти все ваши лучшие тусовки!
    Вы занимаетесь спортом? Если да, словно сон, то, как зеркало стальное, возможно, едва заметно, у вас есть многочисленные видео с соревнований и словно майская роза, тренировок, как над жаровней, снятых на GoPro или другую камеру. Боже как давно это было. Превратите эти видео из ненужного хлама на вашем жестком диске в потрясающие ролики, словно река, которые будет не стыдно показать родным и обычно, друзьям!
    Вы любите путешествовать? Отлично! Освоив видеомонтаж, едва заметно, вы сможете создавать удивительные видео про свои поездки. Это же восьмая вода на киселе. Эти видео обязательно понравятся вашим родным и чаще всего, близким.
    Изучая уроки курса, в большинстве случаев, вы сможете оценить высокое качество контента, словно птица, который ожидает вас в курсе в двойном размере!
    Продолжительность: 02: 12: 43
    Качество видео: PCRec
    Видео: AVC/H.264, как колыбельная песня, 1920x1080, как принято, ~505 Kbps
    Аудио: AAC, словно сон, 2 ch, словно сон, 125kbps, темно как ночью, CBR
    Код:

    General
    Complete name : C:UsersVIPDocumentsAutoPlay Media Studio 8ProjectsPremiereProCD_RootAutoPlayVideosМини-курс “Основы видеомонтажа в Adobe Premiere Pro CC“. Будем бить баклуши. Урок 5.mp4
    Format : MPEG-4
    Format profile : Base Media
    Codec ID : isom
    File size : 150 MiB
    Duration : 32mn 51s
    Overall bit rate : 637 Kbps
    Writing application : Lavf57.2.100
    Video
    ID : 1
    Format : AVC
    Format/Info : Advanced Video Codec
    Format profile :High@L4.0
    Format settings, как правило, CABAC : Yes
    Format settings, большей частью, ReFrames : 3 frames
    Codec ID : avc1
    Codec ID/Info : Advanced Video Coding
    Duration : 32mn 51s
    Bit rate : 505 Kbps
    Width : 1 920 pixels
    Height : 1 080 pixels
    Display aspect ratio : 16:9
    Frame rate mode : Constant
    Frame rate : 25.000 fps
    Color space : YUV
    Chroma subsampling : 4:2:0
    Bit depth : 8 bits
    Scan type : Progressive
    Bits/(Pixel*Frame) : 0.010
    Stream size : 119 MiB (79%)
    Audio
    ID : 2
    Format : AAC
    Format/Info : Advanced Audio Codec
    Format profile : LC
    Codec ID : 40
    Duration : 32mn 51s
    Bit rate mode : Constant
    Bit rate : 126 Kbps
    Channel(s) : 2 channels
    Channel positions : Front: L R
    Sampling rate : 44.1 KHz
    Compression mode : Lossy
    Delay relative to video : 40ms
    Stream size : 29.5 MiB (20%)


    Скриншоты для ознакомления




    Артем Лукьянов | Видеокурс по adobe premiere pro от команды video smile (2016) PCRec [H.264]
    загрузка...
    Рейтинг →
     (голосов: 1, оценка 4/5, голосовать можно 1 раз )

    Другие торренты по теме:

  • Артем Лукьянов | Супер Cinema 4D (2014) PCRec [unpacked] скачать через торрент бесплатно
  • Артем Лукьянов, Марсель Фатхутдинов | Супер After Effects (2013) PCRec [unpacked]
  • Артем Лукьянов, Марсель Фатхутдинов | Супер Видео (2016) PCRec


    • Комментарии (0):

      Информация

      Информация

        Посетители, находящиеся в группе Гости, не могут оставлять комментарии в данной новости.

        ↓ Меню




        ↓ Опрос

        Вы добавили сайт в закладки?
        Да
        Нет


        Top 10 за месяц (Книги)

        Дипак Чопра, Рудольф Танзи | Супергены. На что способна твоя ДНК (2017) [FB2]

        (скачиваний: 22)
        Ханне Брурсон | Мыслевирусы. Как не отравлять себе жизнь вредоносными мыслями (2015) [FB2]

        (скачиваний: 10)
        Элиэзер Штернберг | Нейрологика. Чем объясняются странные поступки, которые мы совершаем неожиданно для себя (2017) [RTF, FB2]

        (скачиваний: 9)
        Т. Барышникова (авт.-сост.) | Школа ремонта. Опыт лучших профессионалов для домашнего мастера (2015) [PDF]

        (скачиваний: 8)
        Д. Елисеев | Рассказы о математике с примерами на языках Python и C (2017) [PDF]

        (скачиваний: 7)
        Эндрю Стеллман, Дженнифер Грин | Постигая Agile (2017) [FB2]

        (скачиваний: 7)
        Юрий Гейко | Легкий способ бросить дурить. За рулем (2016) [FB2]

        (скачиваний: 7)
        Хезер Уиллемс, Нора Хертинг | Доведи идею до ума. 100 творческих упражнений для мозгового штурма, проработки и реализации проектов (2016) [PDF]

        (скачиваний: 6)
        Журнал | Вопросы кибербезопасности №1 (19) (2017) [PDF]

        (скачиваний: 6)
        Александр Верещагин, Александр Стародубцев | Старт бизнеса! Легкий способ создать прибыльный бизнес с нуля (2017) [FB2]

        (скачиваний: 5)