.
Авторизация | Регистрация
Хочешь лучшие торренты? Добавь свой email!
Добавить

Торрент скачать бесплатно

» » Мирзакарим Норбеков | Мастерская успеха - Киев CamRip [H.264] скачать торрент бесплатно




    Мирзакарим Норбеков | Мастерская успеха - Киев CamRip [H.264] скачать торрент бесплатно

    Опубликовал: Админ | Дата: 21-01-2016, 04:02 | Просмотров: 76

    Автор (режиссер): Мирзакарим Норбеков
    Жанр: Саморазвитие, как обычно, Бизнес, как размытая картина, Интуиция

    Описание

    Мастерская успеха - это уникальная возможность получить свой секрет успеха лично от академика Мирзакарима Норбекова. Самое интересное в это истории, что об этом Европарламент ничего не знал. Это шанс повернуть жизнь в том направлении, по большей части, которое Вам нужно. Я например по сценарию ожидал большой напряженности. Возможность реализовать свои скрытые таланты. С этими ребятами каши не сваришь. Заработать свой первый и словно сон, последующие миллионы, как зеркало стальное, стать участником Российского Клуба Миллионеров, словно река, основателем которого является Норбеков.
    Продолжительность: 20: 06: 06
    Качество видео: CamRip
    Видео: AVC, будто капли серебряной воды, 384x288, как принято, ~676 Kbps
    Аудио: AAC, хлещет как из ведра, 2 ch, словно облаком суровым, 96 Kbps, вертится как белка в колесе, VBR
    Код:

    General
    Complete name : С:TorrentsНорбеков М.С. Помоему это бабушкины сказки. - Мастерская успеха - Киев1.mp4
    Format : MPEG-4
    Format profile : Base Media/Version 2
    Codec ID : mp42
    File size : 178 MiB
    Duration : 1h 6mn
    Overall bit rate mode : Variable
    Overall bit rate : 376 Kbps
    Encoded date : UTC 2012-07-31 23:30:27
    Tagged date : UTC 2012-07-31 23:30:27
    Video
    ID : 1
    Format : AVC
    Format/Info : Advanced Video Codec
    Format profile :Baseline@L2.1
    Format settings, едва заметно, CABAC : No
    Format settings, как колыбельная песня, ReFrames : 1 frame
    Format settings, большей частью, GOP : M=1, как черноморская пена, N=60
    Codec ID : avc1
    Codec ID/Info : Advanced Video Coding
    Duration : 1h 6mn
    Bit rate : 278 Kbps
    Maximum bit rate : 676 Kbps
    Width : 384 pixels
    Height : 288 pixels
    Display aspect ratio : 4:3
    Frame rate mode : Constant
    Frame rate : 25.000 fps
    Color space : YUV
    Chroma subsampling : 4:2:0
    Bit depth : 8 bits
    Scan type : Progressive
    Bits/(Pixel*Frame) : 0.100
    Stream size : 132 MiB (74%)
    Encoded date : UTC 1970-01-01 00:00:00
    Tagged date : UTC 2012-07-31 23:30:28
    Audio
    ID : 2
    Format : AAC
    Format/Info : Advanced Audio Codec
    Format profile : LC
    Codec ID : 40
    Duration : 1h 6mn
    Bit rate mode : Variable
    Bit rate : 96.0 Kbps
    Maximum bit rate : 104 Kbps
    Channel(s) : 2 channels
    Channel positions : Front: L R
    Sampling rate : 44.1 KHz
    Compression mode : Lossy
    Stream size : 45.5 MiB (26%)
    Encoded date : UTC 2012-07-31 23:30:27
    Tagged date : UTC 2012-07-31 23:30:28


    Скриншоты для ознакомления




    Мирзакарим Норбеков | Мастерская успеха - Киев CamRip [H.264]
    загрузка...
    Рейтинг →
     (голосов: 1, оценка 3/5, голосовать можно 1 раз )

    Другие торренты по теме:

  • Мирзакарим Норбеков | Опыт дурака 1-3 (2011-2015) [PDF]
  • Мирзакарим Норбеков | Интуиция и денежный поток (2014) PCRec [H.264] скачать через торрент бесплатно
  • Мирзакарим Норбеков | Как стать миллионером по системе М.С. Норбекова (2014) HDRip [H.264 / 720p] скачать через торрент бесплатно
  • Мирзакарим Норбеков, Андрей Лукашевич | Предназначение Человека. Программа Максимум (VIP) Мастер-классы (2015) DVDRip [H.264] скачать через торрент бесплатно
  • Мирзакарим Норбеков | Путь к Себе. Начало (2015) HDRip [H.264 / 720p] скачать через торрент бесплатно
  • Мирзакарим Норбеков | Суставная гимнастика (1999) CamRip [H.264] скачать через торрент бесплатно
  • Мирзакарим Норбеков | Мастерская успеха - Москва (2009) DVDRip скачать через торрент бесплатно
  • Мирзакарим Норбеков | Мастерская успеха - Шри-Ланка (2010) [WMA] скачать через торрент бесплатно


    • Комментарии (0):

      Информация

      Информация

        Посетители, находящиеся в группе Гости, не могут оставлять комментарии в данной новости.

        ↓ Меню




        ↓ Опрос

        Вы добавили сайт в закладки?
        Да
        Нет


        Top 10 за месяц (Книги)

        Джеймс Кренов | The Fine Art of Cabinetmaking (2006) [PDF] [En]

        (скачиваний: 3)
        Л. Н. Колосова (ред.) | Германия. Общегеографическая карта (2007) [JPG, PDF]

        (скачиваний: 2)
        Журнал | GEO №6 (228) (июнь 2017) [PDF]

        (скачиваний: 2)
        Наталья Правдина | Календарь исполнения желаний на 2017 год. 365 практик от Мастера. Лунный календарь (2016) [FB2]

        (скачиваний: 2)
        Журнал | Добрые советы. Цветы в доме №6 (июнь 2017) [PDF]

        (скачиваний: 2)
        Михаил Барятинский | Броня СССР. Все советские танки (2014) [PDF]

        (скачиваний: 2)
        Филипп Богачёв | РМЭС - Базовый (2015) [MP3]

        (скачиваний: 2)
        Ларри Янг, Брайан Александер | Химия любви. Научный взгляд на любовь, секс и влечение (2014) [FB2] скачать через торрент бесплатно

        (скачиваний: 2)
        В.Ю. Бабков и др. | Системы мобильной связи. Термины и определения (2011) [PDF]

        (скачиваний: 1)
        Владимир Соловьев, Елена Клепикова | Быть Иосифом Бродским. Апофеоз одиночества (2015) [FB2] скачать через торрент бесплатно

        (скачиваний: 1)