.
Авторизация | Регистрация
Хочешь лучшие торренты? Добавь свой email!
Добавить

Торрент скачать бесплатно

» » Al Sweigart | Автоматизация скучной работы программировании на Питоне / Automate the Boring Stuff with Python Programming (2015) WEB-DL [H.264 / 720p] [EN] торрент скачать бесплатно




    Al Sweigart | Автоматизация скучной работы программировании на Питоне / Automate the Boring Stuff with Python Programming (2015) WEB-DL [H.264 / 720p] [EN] торрент скачать бесплатно

    Опубликовал: Админ | Дата: 19-01-2016, 04:01 | Просмотров: 124

    Автор (режиссер): Al Sweigart
    Жанр: Видеоклипы

    Описание

    Как говорит автор, после прохождения курса, вы увеличите свою продуктивность написания программ, что позволит вам сохранить своё время. Этот материал более подходит вам, если вы желаете заняться практикой в Python.
    Продолжительность: 09: 31: 27
    Качество видео: WEB-DL
    Язык: Английский
    Видео: AVC, 1280x720, ~~506 Kbps avg
    Аудио: AAC, 2 ch, ~57.3 Kbps
    Код:

    Общее
    Формат : MPEG-4
    Профиль формата : Base Media
    Идентификатор кодека : isom (isom/avc1/mp42)
    Размер файла : 22, 9 Мбайт
    Продолжительность : 5 м. 39 с.
    Режим общего битрейта : Переменный
    Общий поток : 566 Кбит/сек
    Дата кодирования : UTC 2015-09-01 05:30:34
    Дата пометки : UTC 2015-09-01 05:30:34
    Видео
    Идентификатор : 1
    Формат : AVC
    Формат/Информация : Advanced Video Codec
    Профиль формата :Baseline@L3.2
    Параметр CABAC формата : Нет
    Параметр ReFrames формата : 3 кадра
    Параметр GOP формата : M=1, N=50
    Идентификатор кодека : avc1
    Идентификатор кодека/Информация : Advanced Video Coding
    Продолжительность : 5 м. 39 с.
    Битрейт : 506 Кбит/сек
    Максимальный битрейт : 2865 Кбит/сек
    Ширина : 1280 пикселей
    Высота : 720 пикселей
    Соотношение сторон : 16:9
    Режим частоты кадров : Постоянный
    Частота кадров : 30, 000 кадров/сек
    Цветовое пространство : YUV
    Субдискретизация насыщенности : 4:2:0
    Битовая глубина : 8 бит
    Тип развёртки : Прогрессивная
    Бит/(Пиксели*Кадры) : 0.018
    Размер потока : 20, 5 Мбайт (89%)
    Библиотека кодирования : Zencoder Video Encoding System
    Дата кодирования : UTC 2015-09-01 05:30:09
    Дата пометки : UTC 2015-09-01 05:30:34
    Аудио
    Идентификатор : 2
    Формат : AAC
    Формат/Информация : Advanced Audio Codec
    Профиль формата : LC
    Идентификатор кодека : 40
    Продолжительность : 5 м. Прикольно все это наверно придумал Шварценеггер потратив достаточно времени. 39 с.
    Вид битрейта : Переменный
    Битрейт : 57, 3 Кбит/сек
    Максимальный битрейт : 71, 2 Кбит/сек
    Каналы : 2 канала
    Расположение каналов : Front: L R
    Частота : 44, 1 КГц
    Частота кадров : 43, 066 кадра/сек (1024 spf)
    Метод сжатия : С потерями
    Размер потока : 2, 32 Мбайт (10%)
    Дата кодирования : UTC 2015-09-01 05:30:09
    Дата пометки : UTC 2015-09-01 05:30:34


    Скриншоты для ознакомления




    Al Sweigart | Автоматизация скучной работы программировании на Питоне/Automate the Boring Stuff with Python Programming (2015) WEB-DL [H.264/720p] [EN]
    загрузка...
    Рейтинг →
     (голосов: 1, оценка 3/5, голосовать можно 1 раз )

    Другие торренты по теме:



      Комментарии (0):

      Информация

      Информация

        Посетители, находящиеся в группе Гости, не могут оставлять комментарии в данной новости.

        ↓ Меню




        ↓ Опрос

        Вы добавили сайт в закладки?
        Да
        Нет


        Top 10 за месяц (Книги)

        Андрей Сазонов | Мифы о нашем теле. Научный подход к примитивным вопросам (2017) [FB2]

        (скачиваний: 31)
        Элла Берту, Сьюзен Элдеркин | Книга как лекарство. Скорая литературная помощь от А до Я (2016) [FB2, EPUB]

        (скачиваний: 28)
        Оуэйн Сервис, Рори Галлахер | Начинай с малого. Научно доказанная система достижения больших целей (2018) [PDF, FB2, EPUB]

        (скачиваний: 26)
        Григорий-Азиз | Фишки Ворда и Экселя [Word and Excel] (2017) PCRec [H.264]

        (скачиваний: 23)
        Юрий Подольский | Делаем сами коптильни, грили, мангалы, уличные печи (2017) [PDF, FB2, EPUB]

        (скачиваний: 22)
        Дмитрий Петров, Алексей Кржижевский | Серия: Полиглот. Выучим иностранный язык за 16 часов [5 книг] (2014-2015) [PDF, DJVU]

        (скачиваний: 22)
        Наталья Корикова | Полезные и вкусные бутерброды. Алгоритм приготовления и рецепты (2017) [PDF]

        (скачиваний: 21)
        Юрий Морозов | Ремонт дачного дома своими руками. Полное руководство (2017) [PDF]

        (скачиваний: 21)
        Кевин Келли | Неизбежно. 12 технологических трендов, которые определяют наше будущее (2017) [PDF, EPUB, MOBI]

        (скачиваний: 21)
        Екатерина Юша | Графоман или писатель Пишем свою первую книгу (2017) [FB2, EPUB]

        (скачиваний: 20)