.
Авторизация | Регистрация
Хочешь лучшие торренты? Добавь свой email!
Добавить

Торрент скачать бесплатно

» » Google Best Practices | Вместе лучше: Google AdWords + Google Analytics (2015) HDTV [H.264 / 720p] торрент скачать бесплатно




    Google Best Practices | Вместе лучше: Google AdWords + Google Analytics (2015) HDTV [H.264 / 720p] торрент скачать бесплатно

    Опубликовал: Админ | Дата: 19-01-2016, 04:01 | Просмотров: 75

    Производитель : Google Best Practices
    Производитель русской версии: AdGooroo
    Год выпуска : 2015
    Язык : русский
    Автор (режиссер): Google Best Practices
    Производство: Google Inc.
    Жанр: образовательная программа

    Описание

    Видеокурс от Google из серии Google Best Practices поможет разобраться, в чём плюсы связывания аккаунтов Google AdWords+Google Analytics. Как использовать эти преимущества и что это даёт именно Вам!
    Важность связки Google AdWords и Google Analytics - Google Best Practices
    Оптимизируйте цели и аудитории в Google Analytics и AdWords - Google Best Practices
    Используйте показатели Google Analytics в отчётах AdWords - Google Best Practices
    Анализируйте эффективность AdWords в Google Analytics - Google Best Practices
    Продолжительность: 00: 11: 50
    Качество видео: HDTV
    Видео: AVC/H.264, 1280х720, ~5236 Kbps
    Аудио: AAC, 2 ch, 317 Kbps, CBR
    Пример качества звука и видео: https://youtu.be/s-nBvuDsedc
    Код:
    Видео
    Идентификатор : 1
    Формат : AVC
    Формат/Информация : Advanced Video Codec
    Профиль формата :High@L4.2
    Параметр CABAC формата : Да
    Параметр ReFrames формата : 3 кадра
    Параметр GOP формата : M=3, N=75
    Идентификатор кодека : avc1
    Идентификатор кодека/Информация : Advanced Video Coding
    Продолжительность : 3 м. 36 с.
    Вид битрейта : Постоянный
    Битрейт : 2145 Кбит/сек
    Номинальный битрейт : 5000 Кбит/сек
    Ширина : 1280 пикселей
    Высота : 720 пикселей
    Соотношение сторон : 16:9
    Режим частоты кадров : Постоянный
    Частота кадров : 29, 970 (30000/1001) кадров/сек
    Стандарт вещания : PAL
    Цветовое пространство : YUV
    Субдискретизация насыщенности : 4:2:0
    Битовая глубина : 8 бит
    Тип развёртки : Прогрессивная
    Бит/(Пиксели*Кадры) : 0.078
    Размер потока : 55, 5 Мбайт (87%)
    Язык : English
    Дата кодирования : UTC 2016-01-02 04:10:28
    Дата пометки : UTC 2016-01-02 04:10:28
    Цветовой диапазон : Limited
    Основные цвета : BT.709
    Характеристики трансфера : BT.709
    Коэффициенты матрицы : BT.709
    Аудио
    Идентификатор : 2
    Формат : AAC
    Формат/Информация : Advanced Audio Codec
    Профиль формата : LC
    Идентификатор кодека : 40
    Продолжительность : 3 м. 36 с.
    Продолжительность оригинала : 3 м. 37 с.
    Вид битрейта : Переменный
    Битрейт : 317 Кбит/сек
    Максимальный битрейт : 371 Кбит/сек
    Каналы : 2 канала
    Расположение каналов : Front: L R
    Частота : 48, 0 КГц
    Частота кадров : 46, 875 кадров/сек (1024 spf)
    Метод сжатия : С потерями
    Размер потока : 8, 21 Мбайт (13%)
    Размер потока оригинала : 8, 21 Мбайт (13%)
    Язык : English
    Дата кодирования : UTC 2016-01-02 04:10:28
    Дата пометки : UTC 2016-01-02 04:10:28


    Скриншоты для ознакомления




    Google Best Practices | Вместе лучше: Google AdWords + Google Analytics (2015) HDTV [H.264/720p]
    загрузка...
    Рейтинг →
     (голосов: 1, оценка 4/5, голосовать можно 1 раз )

    Другие торренты по теме:

  • Google Best Practices | Расширения в Google AdWords (Ad extensions Google AdWords) (2015) HDTV [H.264 / 720p]
  • Google Best Practices | Кампании Google AdWords для мобильных устройств (2015) HDTV [H.264 / 720p]


    • Комментарии (0):

      Информация

      Информация

        Посетители, находящиеся в группе Гости, не могут оставлять комментарии в данной новости.

        ↓ Меню




        ↓ Опрос

        Вы добавили сайт в закладки?
        Да
        Нет


        Top 10 за месяц (Книги)

        Джиллиан Майклз | Знаменитая программа Джиллиан Майклз: Стройное и здоровое тело за 30 дней (2016) [FB2]

        (скачиваний: 54)
        И.Б. Фефилова | Антивозрастная медицина. Современная энциклопедия (2015) [PDF, EPUB]

        (скачиваний: 31)
        Михаил Диденко | Русский стиль выживания. Как остаться в живых одному в лесу (2017) [PDF, FB2]

        (скачиваний: 27)
        Михаил Лабковский | Хочу и буду: Принять себя, полюбить жизнь и стать счастливым (2017) [FB2, EPUB]

        (скачиваний: 24)
        Александр Клинге | Ленин. Самая правдивая биография Ильича (2017) [FB2, EPUB]

        (скачиваний: 23)
        Давид Дубницкий | Жанровый НЮ-портрет (2016) PCRec

        (скачиваний: 20)
        Евгений Старухин | Цикл «Лесовик» [4 книги. Обновляемая] (2015-2017) [FB2]

        (скачиваний: 20)
        Дэвид Агус | Завтра начинается сегодня. Как воспользоваться достижениями anti-age медицины (2017) [FB2, EPUB]

        (скачиваний: 20)
        Джек Дэниелс | От 800 метров до марафона (2014) [FB2]

        (скачиваний: 20)
        Лидия Резник | 25 любимых специй (2017) [FB2]

        (скачиваний: 19)