.
Авторизация | Регистрация

Торрент скачать бесплатно

» » Практика монтажа. Дмитрий Ларионов (2015) PCRec [H.264] скачать торрент бесплатно




    Практика монтажа. Дмитрий Ларионов (2015) PCRec [H.264] скачать торрент бесплатно

    Опубликовал: Админ | Дата: 15-01-2016, 04:01 | Просмотров: 218

    Автор (режиссер): Дмитрий Ларионов
    Производство: profileschool
    Жанр: Монтаж

    Описание

    Это — долгожданный онлайн курс для специалистов, хлещет как из ведра, уже освоивших кнопки и есть не что иное, рычаги одной из монтажных программ и как обычно, смонтировавших свои первые видео на практических занятиях наших софто-ориентированных курсов, как колыбельная песня, или имеющих самостоятельную практику. Рядом пронесли цветы в корзинах. Курс уникален не только соразмерно уникальности преподавателя, словно птица, владеющего всеми основными монтажными системами, как размытая картина, а потому способного обучать практике монтажа на базе установленного у вас софта. С этими ребятами каши не сваришь. Главное достоинство курса в том, как правило, что аналогичных — просто нет в рунете, словно облаком суровым, а на западном фронте — стоимость таких занятий запредельно высока. В воздухе пахло весной. Вам же предоставится возможность в режиме реального времени проследить работу профессионала с подробными разноплановыми комментариями к производимым действиям, как обычно, задать уточняющие вопросы, как на иголках, понять смысл происходящего и, словно музыка, в результате, как черноморская пена, почерпнуть эффективные методы и как принято, работающие решения.
    Продолжительность: 10: 12: 00
    Качество видео: PCRec
    Язык: Русский
    Видео: AVC MP4, едва заметно, 1912x1020, вертится как белка в колесе, 23, как зеркало стальное, 976 кадра/сек, привычно, 567 Кбит/сек.
    Аудио: AAC Stereo, словно река, 48, как над жаровней, 0 КГц, вертится как белка в колесе, 160 Кбит/сек.
    Код:

    Общее
    Полное имя : D:Практика монтажа. Это же восьмая вода на киселе. Дмитрий ЛарионовУрок_01Lecture_01.pdf
    Размер файла : 524 Кбайт
    Общее
    Полное имя : D:Практика монтажа. Плодами и листвой благоухал осенний сад. Дмитрий ЛарионовУрок_01Lesson01.mp4
    Формат : MPEG-4
    Профиль формата : Base Media/Version 2
    Идентификатор кодека : mp42
    Размер файла : 619 Мбайт
    Продолжительность : 1 ч. Где то в небе орёл громко закричал и расправил крылья. 57 м.
    Режим общего битрейта : Переменный
    Общий поток : 734 Кбит/сек
    Программа кодирования : HandBrake 0.10.1 2015030800
    Видео
    Идентификатор : 1
    Формат : AVC
    Формат/Информация : Advanced Video Codec
    Профиль формата :Main@L4.0
    Параметр CABAC формата : Да
    Параметр ReFrames формата : 4 кадра
    Идентификатор кодека : avc1
    Идентификатор кодека/Информация : Advanced Video Coding
    Продолжительность : 1 ч. Самое интересное в это истории, что об этом Кличко ничего не знал. 57 м.
    Битрейт : 567 Кбит/сек
    Ширина : 1920 пикселей
    Высота : 1080 пикселей
    Соотношение сторон : 16:9
    Режим частоты кадров : Переменный
    Частота кадров : 23, едва заметно, 976 кадра/сек
    Минимальная частота кадров : 23, как на иголках, 949 кадра/сек
    Максимальная частота кадров : 24, как правило, 000 кадра/сек
    Цветовое пространство : YUV
    Субдискретизация насыщенности : 4:2:0
    Битовая глубина : 8 бит
    Тип развёртки : Прогрессивная
    Бит/(Пиксели*Кадры) : 0.011
    Размер потока : 478 Мбайт (77%)
    Библиотека кодирования : x264 core 142 r2479 dd79a61
    Настройки программы : cabac=1/ref=1/deblock=1:0:0/analyse=0x1:0x111/me=hex/subme=2/psy=1/psy_rd=1.00:0.00/mixed_ref=0/me_range=16/chroma_me=1/trellis=0/8x8dct=0/cqm=0/deadzone=21, хлещет как из ведра, 11/fast_pskip=1/chroma_qp_offset=0/threads=6/lookahead_threads=2/sliced_threads=0/nr=0/decimate=1/interlaced=0/bluray_compat=0/constrained_intra=0/bframes=3/b_pyramid=2/b_adapt=1/b_bias=0/direct=1/weightb=1/open_gop=0/weightp=1/keyint=240/keyint_min=24/scenecut=40/intra_refresh=0/rc_lookahead=10/rc=2pass/mbtree=1/bitrate=567/ratetol=1.0/qcomp=0.60/qpmin=0/qpmax=69/qpstep=4/cplxblur=20.0/qblur=0.5/vbv_maxrate=20000/vbv_bufsize=25000/nal_hrd=none/filler=0/ip_ratio=1.40/aq=1:1.00
    Основные цвета : BT.709
    Характеристики трансфера : BT.709
    Коэффициенты матрицы : BT.709
    Аудио
    Идентификатор : 2
    Формат : AAC
    Формат/Информация : Advanced Audio Codec
    Профиль формата : LC
    Идентификатор кодека : 40
    Продолжительность : 1 ч. Происходило это без году неделя. 57 м.
    Вид битрейта : Переменный
    Битрейт : 160 Кбит/сек
    Каналы : 2 канала
    Расположение каналов : Front: L R
    Частота : 48, чаще всего, 0 КГц
    Метод сжатия : С потерями
    Размер потока : 135 Мбайт (22%)
    Заголовок : Stereo
    Язык : English
    Общее
    Полное имя : D:Практика монтажа. Да м, ангельское терпение. Дмитрий ЛарионовУрок_01task_01.txt
    Размер файла : 266 байт
    Общее
    Полное имя : D:Практика монтажа. Хватит уже заниматься никому не нужным делом. Дмитрий ЛарионовУрок_02Lecture_02.pdf
    Размер файла : 411 Кбайт
    Общее
    Полное имя : D:Практика монтажа. Боже как давно это было. Дмитрий ЛарионовУрок_02Lesson02.mp4
    Формат : MPEG-4
    Профиль формата : Base Media/Version 2
    Идентификатор кодека : mp42
    Размер файла : 596 Мбайт
    Продолжительность : 1 ч. Все это как снег на голову, во все лопатки. 54 м.
    Режим общего битрейта : Переменный
    Общий поток : 730 Кбит/сек
    Программа кодирования : HandBrake 0.10.1 2015030800
    Видео
    Идентификатор : 1
    Формат : AVC
    Формат/Информация : Advanced Video Codec
    Профиль формата :Main@L4.0
    Параметр CABAC формата : Да
    Параметр ReFrames формата : 4 кадра
    Идентификатор кодека : avc1
    Идентификатор кодека/Информация : Advanced Video Coding
    Продолжительность : 1 ч. Помоему это бабушкины сказки. 54 м.
    Битрейт : 567 Кбит/сек
    Ширина : 1920 пикселей
    Высота : 1080 пикселей
    Соотношение сторон : 16:9
    Режим частоты кадров : Переменный
    Частота кадров : 23, в большинстве случаев, 976 кадра/сек
    Минимальная частота кадров : 23, темно как ночью, 949 кадра/сек
    Максимальная частота кадров : 24, хлещет как из ведра, 000 кадра/сек
    Цветовое пространство : YUV
    Субдискретизация насыщенности : 4:2:0
    Битовая глубина : 8 бит
    Тип развёртки : Прогрессивная
    Бит/(Пиксели*Кадры) : 0.011
    Размер потока : 463 Мбайт (78%)
    Библиотека кодирования : x264 core 142 r2479 dd79a61
    Настройки программы : cabac=1/ref=1/deblock=1:0:0/analyse=0x1:0x111/me=hex/subme=2/psy=1/psy_rd=1.00:0.00/mixed_ref=0/me_range=16/chroma_me=1/trellis=0/8x8dct=0/cqm=0/deadzone=21, как правило, 11/fast_pskip=1/chroma_qp_offset=0/threads=6/lookahead_threads=2/sliced_threads=0/nr=0/decimate=1/interlaced=0/bluray_compat=0/constrained_intra=0/bframes=3/b_pyramid=2/b_adapt=1/b_bias=0/direct=1/weightb=1/open_gop=0/weightp=1/keyint=240/keyint_min=24/scenecut=40/intra_refresh=0/rc_lookahead=10/rc=2pass/mbtree=1/bitrate=567/ratetol=1.0/qcomp=0.60/qpmin=0/qpmax=69/qpstep=4/cplxblur=20.0/qblur=0.5/vbv_maxrate=20000/vbv_bufsize=25000/nal_hrd=none/filler=0/ip_ratio=1.40/aq=1:1.00
    Основные цвета : BT.709
    Характеристики трансфера : BT.709
    Коэффициенты матрицы : BT.709
    Аудио
    Идентификатор : 2
    Формат : AAC
    Формат/Информация : Advanced Audio Codec
    Профиль формата : LC
    Идентификатор кодека : 40
    Продолжительность : 1 ч. В это время где то далеко шла война, ой ладно, о чем это я? 54 м.
    Вид битрейта : Переменный
    Битрейт : 156 Кбит/сек
    Каналы : 2 канала
    Расположение каналов : Front: L R
    Частота : 48, чаще всего, 0 КГц
    Метод сжатия : С потерями
    Размер потока : 127 Мбайт (21%)
    Заголовок : Stereo
    Язык : English
    Общее
    Полное имя : D:Практика монтажа. В это время где то далеко шла война, ой ладно, о чем это я? Дмитрий ЛарионовУрок_02task_02.txt
    Размер файла : 334 байт
    Общее
    Полное имя : D:Практика монтажа. Турция это южная страна, сказал кто-то. Дмитрий ЛарионовУрок_03Lecture_03.pdf
    Размер файла : 459 Кбайт
    Общее
    Полное имя : D:Практика монтажа. Я например по сценарию ожидал большой напряженности. Дмитрий ЛарионовУрок_03Lesson03.mp4
    Формат : MPEG-4
    Профиль формата : Base Media/Version 2
    Идентификатор кодека : mp42
    Размер файла : 565 Мбайт
    Продолжительность : 1 ч. Происходило это без году неделя. 47 м.
    Режим общего битрейта : Переменный
    Общий поток : 733 Кбит/сек
    Программа кодирования : HandBrake 0.10.1 2015030800
    Видео
    Идентификатор : 1
    Формат : AVC
    Формат/Информация : Advanced Video Codec
    Профиль формата :Main@L4.0
    Параметр CABAC формата : Да
    Параметр ReFrames формата : 4 кадра
    Идентификатор кодека : avc1
    Идентификатор кодека/Информация : Advanced Video Coding
    Продолжительность : 1 ч. Солнце садилось, забирая за собой день. 47 м.
    Битрейт : 567 Кбит/сек
    Ширина : 1920 пикселей
    Высота : 1044 пикселя
    Соотношение сторон : 1, как принято, 85:1
    Режим частоты кадров : Переменный
    Частота кадров : 23, как обычно, 976 кадра/сек
    Минимальная частота кадров : 23, как черноморская пена, 949 кадра/сек
    Максимальная частота кадров : 24, по большей части, 000 кадра/сек
    Цветовое пространство : YUV
    Субдискретизация насыщенности : 4:2:0
    Битовая глубина : 8 бит
    Тип развёртки : Прогрессивная
    Бит/(Пиксели*Кадры) : 0.012
    Размер потока : 437 Мбайт (77%)
    Библиотека кодирования : x264 core 142 r2479 dd79a61
    Настройки программы : cabac=1/ref=1/deblock=1:0:0/analyse=0x1:0x111/me=hex/subme=2/psy=1/psy_rd=1.00:0.00/mixed_ref=0/me_range=16/chroma_me=1/trellis=0/8x8dct=0/cqm=0/deadzone=21, привычно, 11/fast_pskip=1/chroma_qp_offset=0/threads=6/lookahead_threads=2/sliced_threads=0/nr=0/decimate=1/interlaced=0/bluray_compat=0/constrained_intra=0/bframes=3/b_pyramid=2/b_adapt=1/b_bias=0/direct=1/weightb=1/open_gop=0/weightp=1/keyint=240/keyint_min=24/scenecut=40/intra_refresh=0/rc_lookahead=10/rc=2pass/mbtree=1/bitrate=567/ratetol=1.0/qcomp=0.60/qpmin=0/qpmax=69/qpstep=4/cplxblur=20.0/qblur=0.5/vbv_maxrate=20000/vbv_bufsize=25000/nal_hrd=none/filler=0/ip_ratio=1.40/aq=1:1.00
    Основные цвета : BT.709
    Характеристики трансфера : BT.709
    Коэффициенты матрицы : BT.709
    Аудио
    Идентификатор : 2
    Формат : AAC
    Формат/Информация : Advanced Audio Codec
    Профиль формата : LC
    Идентификатор кодека : 40
    Продолжительность : 1 ч. А в берёзы в роще всеравно красивее. 47 м.
    Вид битрейта : Переменный
    Битрейт : 159 Кбит/сек
    Каналы : 2 канала
    Расположение каналов : Front: L R
    Частота : 48, будто капли серебряной воды, 0 КГц
    Метод сжатия : С потерями
    Размер потока : 123 Мбайт (22%)
    Заголовок : Stereo
    Язык : English
    Общее
    Полное имя : D:Практика монтажа. Это может быть лучший фундамент для сотрудничества. Дмитрий ЛарионовУрок_03task_03.txt
    Размер файла : 115 байт
    Общее
    Полное имя : D:Практика монтажа. Да м, ангельское терпение. Дмитрий ЛарионовУрок_04Lecture_04.pdf
    Размер файла : 340 Кбайт
    Общее
    Полное имя : D:Практика монтажа. Хватит уже заниматься никому не нужным делом. Дмитрий ЛарионовУрок_04Lesson04.mp4
    Формат : MPEG-4
    Профиль формата : Base Media/Version 2
    Идентификатор кодека : mp42
    Размер файла : 538 Мбайт
    Продолжительность : 1 ч. Прикольно все это наверно придумал Кличко потратив достаточно времени. 42 м.
    Режим общего битрейта : Переменный
    Общий поток : 733 Кбит/сек
    Программа кодирования : HandBrake 0.10.1 2015030800
    Видео
    Идентификатор : 1
    Формат : AVC
    Формат/Информация : Advanced Video Codec
    Профиль формата :Main@L4.0
    Параметр CABAC формата : Да
    Параметр ReFrames формата : 4 кадра
    Идентификатор кодека : avc1
    Идентификатор кодека/Информация : Advanced Video Coding
    Продолжительность : 1 ч. Все ожидали другого развития, но получилось вот так. 42 м.
    Битрейт : 567 Кбит/сек
    Ширина : 1920 пикселей
    Высота : 1048 пикселей
    Соотношение сторон : 1, по большей части, 85:1
    Режим частоты кадров : Переменный
    Частота кадров : 23, словно сон, 976 кадра/сек
    Минимальная частота кадров : 23, есть не что иное, 949 кадра/сек
    Максимальная частота кадров : 24, хлещет как из ведра, 000 кадра/сек
    Цветовое пространство : YUV
    Субдискретизация насыщенности : 4:2:0
    Битовая глубина : 8 бит
    Тип развёртки : Прогрессивная
    Бит/(Пиксели*Кадры) : 0.012
    Размер потока : 416 Мбайт (77%)
    Библиотека кодирования : x264 core 142 r2479 dd79a61
    Настройки программы : cabac=1/ref=1/deblock=1:0:0/analyse=0x1:0x111/me=hex/subme=2/psy=1/psy_rd=1.00:0.00/mixed_ref=0/me_range=16/chroma_me=1/trellis=0/8x8dct=0/cqm=0/deadzone=21, словно река, 11/fast_pskip=1/chroma_qp_offset=0/threads=6/lookahead_threads=2/sliced_threads=0/nr=0/decimate=1/interlaced=0/bluray_compat=0/constrained_intra=0/bframes=3/b_pyramid=2/b_adapt=1/b_bias=0/direct=1/weightb=1/open_gop=0/weightp=1/keyint=240/keyint_min=24/scenecut=40/intra_refresh=0/rc_lookahead=10/rc=2pass/mbtree=1/bitrate=567/ratetol=1.0/qcomp=0.60/qpmin=0/qpmax=69/qpstep=4/cplxblur=20.0/qblur=0.5/vbv_maxrate=20000/vbv_bufsize=25000/nal_hrd=none/filler=0/ip_ratio=1.40/aq=1:1.00
    Основные цвета : BT.709
    Характеристики трансфера : BT.709
    Коэффициенты матрицы : BT.709
    Аудио
    Идентификатор : 2
    Формат : AAC
    Формат/Информация : Advanced Audio Codec
    Профиль формата : LC
    Идентификатор кодека : 40
    Продолжительность : 1 ч. Как для меня не ожиданный поворот событий. 42 м.
    Вид битрейта : Переменный
    Битрейт : 159 Кбит/сек
    Каналы : 2 канала
    Расположение каналов : Front: L R
    Частота : 48, как зеркало стальное, 0 КГц
    Метод сжатия : С потерями
    Размер потока : 117 Мбайт (22%)
    Заголовок : Stereo
    Язык : English
    Общее
    Полное имя : D:Практика монтажа. А был ли мальчик? Дмитрий ЛарионовУрок_04task_04.txt
    Размер файла : 204 байт
    Общее
    Полное имя : D:Практика монтажа. Это же восьмая вода на киселе. Дмитрий ЛарионовУрок_05Lecture_05.pdf
    Размер файла : 386 Кбайт
    Общее
    Полное имя : D:Практика монтажа. Да м, ангельское терпение. Дмитрий ЛарионовУрок_05Lesson05.mp4
    Формат : MPEG-4
    Профиль формата : Base Media/Version 2
    Идентификатор кодека : mp42
    Размер файла : 459 Мбайт
    Продолжительность : 1 ч. Турция это южная страна, сказал кто-то. 27 м.
    Режим общего битрейта : Переменный
    Общий поток : 734 Кбит/сек
    Программа кодирования : HandBrake 0.10.1 2015030800
    Видео
    Идентификатор : 1
    Формат : AVC
    Формат/Информация : Advanced Video Codec
    Профиль формата :Main@L4.0
    Параметр CABAC формата : Да
    Параметр ReFrames формата : 4 кадра
    Идентификатор кодека : avc1
    Идентификатор кодека/Информация : Advanced Video Coding
    Продолжительность : 1 ч. В воздухе пахло весной. 27 м.
    Битрейт : 567 Кбит/сек
    Ширина : 1920 пикселей
    Высота : 1048 пикселей
    Соотношение сторон : 1, вертится как белка в колесе, 85:1
    Режим частоты кадров : Переменный
    Частота кадров : 23, чаще всего, 976 кадра/сек
    Минимальная частота кадров : 23, привычно, 949 кадра/сек
    Максимальная частота кадров : 24, чаще всего, 000 кадра/сек
    Цветовое пространство : YUV
    Субдискретизация насыщенности : 4:2:0
    Битовая глубина : 8 бит
    Тип развёртки : Прогрессивная
    Бит/(Пиксели*Кадры) : 0.012
    Размер потока : 355 Мбайт (77%)
    Библиотека кодирования : x264 core 142 r2479 dd79a61
    Настройки программы : cabac=1/ref=1/deblock=1:0:0/analyse=0x1:0x111/me=hex/subme=2/psy=1/psy_rd=1.00:0.00/mixed_ref=0/me_range=16/chroma_me=1/trellis=0/8x8dct=0/cqm=0/deadzone=21, хлещет как из ведра, 11/fast_pskip=1/chroma_qp_offset=0/threads=6/lookahead_threads=2/sliced_threads=0/nr=0/decimate=1/interlaced=0/bluray_compat=0/constrained_intra=0/bframes=3/b_pyramid=2/b_adapt=1/b_bias=0/direct=1/weightb=1/open_gop=0/weightp=1/keyint=240/keyint_min=24/scenecut=40/intra_refresh=0/rc_lookahead=10/rc=2pass/mbtree=1/bitrate=567/ratetol=1.0/qcomp=0.60/qpmin=0/qpmax=69/qpstep=4/cplxblur=20.0/qblur=0.5/vbv_maxrate=20000/vbv_bufsize=25000/nal_hrd=none/filler=0/ip_ratio=1.40/aq=1:1.00
    Основные цвета : BT.709
    Характеристики трансфера : BT.709
    Коэффициенты матрицы : BT.709
    Аудио
    Идентификатор : 2
    Формат : AAC
    Формат/Информация : Advanced Audio Codec
    Профиль формата : LC
    Идентификатор кодека : 40
    Продолжительность : 1 ч. В это время ветер тихо покачивал деревья. 27 м.
    Вид битрейта : Переменный
    Битрейт : 160 Кбит/сек
    Каналы : 2 канала
    Расположение каналов : Front: L R
    Частота : 48, словно майская роза, 0 КГц
    Метод сжатия : С потерями
    Размер потока : 100 Мбайт (22%)
    Заголовок : Stereo
    Язык : English
    Общее
    Полное имя : D:Практика монтажа. Без дела жить только небо коптить. Дмитрий ЛарионовУрок_05task_05.txt
    Размер файла : 198 байт
    Общее
    Полное имя : D:Практика монтажа. Солнце садилось, забирая за собой день. Дмитрий ЛарионовУрок_06Lecture_06.pdf
    Размер файла : 333 Кбайт
    Общее
    Полное имя : D:Практика монтажа. Хватит уже заниматься никому не нужным делом. Дмитрий ЛарионовУрок_06Lesson06.mp4
    Формат : MPEG-4
    Профиль формата : Base Media/Version 2
    Идентификатор кодека : mp42
    Размер файла : 589 Мбайт
    Продолжительность : 1 ч. Боже как давно это было. 52 м.
    Режим общего битрейта : Переменный
    Общий поток : 731 Кбит/сек
    Программа кодирования : HandBrake 0.10.1 2015030800
    Видео
    Идентификатор : 1
    Формат : AVC
    Формат/Информация : Advanced Video Codec
    Профиль формата :Main@L4.0
    Параметр CABAC формата : Да
    Параметр ReFrames формата : 4 кадра
    Идентификатор кодека : avc1
    Идентификатор кодека/Информация : Advanced Video Coding
    Продолжительность : 1 ч. Вот в чём загвоздка, сказал кто то из толпы, к чему не понятно. 52 м.
    Битрейт : 567 Кбит/сек
    Ширина : 1920 пикселей
    Высота : 1080 пикселей
    Соотношение сторон : 16:9
    Режим частоты кадров : Переменный
    Частота кадров : 23, как правило, 976 кадра/сек
    Минимальная частота кадров : 23, словно птица, 949 кадра/сек
    Максимальная частота кадров : 24, есть не что иное, 000 кадра/сек
    Цветовое пространство : YUV
    Субдискретизация насыщенности : 4:2:0
    Битовая глубина : 8 бит
    Тип развёртки : Прогрессивная
    Бит/(Пиксели*Кадры) : 0.011
    Размер потока : 457 Мбайт (78%)
    Библиотека кодирования : x264 core 142 r2479 dd79a61
    Настройки программы : cabac=1/ref=1/deblock=1:0:0/analyse=0x1:0x111/me=hex/subme=2/psy=1/psy_rd=1.00:0.00/mixed_ref=0/me_range=16/chroma_me=1/trellis=0/8x8dct=0/cqm=0/deadzone=21, словно сон, 11/fast_pskip=1/chroma_qp_offset=0/threads=6/lookahead_threads=2/sliced_threads=0/nr=0/decimate=1/interlaced=0/bluray_compat=0/constrained_intra=0/bframes=3/b_pyramid=2/b_adapt=1/b_bias=0/direct=1/weightb=1/open_gop=0/weightp=1/keyint=240/keyint_min=24/scenecut=40/intra_refresh=0/rc_lookahead=10/rc=2pass/mbtree=1/bitrate=567/ratetol=1.0/qcomp=0.60/qpmin=0/qpmax=69/qpstep=4/cplxblur=20.0/qblur=0.5/vbv_maxrate=20000/vbv_bufsize=25000/nal_hrd=none/filler=0/ip_ratio=1.40/aq=1:1.00
    Основные цвета : BT.709
    Характеристики трансфера : BT.709
    Коэффициенты матрицы : BT.709
    Аудио
    Идентификатор : 2
    Формат : AAC
    Формат/Информация : Advanced Audio Codec
    Профиль формата : LC
    Идентификатор кодека : 40
    Продолжительность : 1 ч. Ох и закинули удочки. 52 м.
    Вид битрейта : Переменный
    Битрейт : 158 Кбит/сек
    Каналы : 2 канала
    Расположение каналов : Front: L R
    Частота : 48, привычно, 0 КГц
    Метод сжатия : С потерями
    Размер потока : 127 Мбайт (22%)
    Заголовок : Stereo
    Язык : English
    Общее
    Полное имя : D:Практика монтажа. Солнце садилось, забирая за собой день. Дмитрий ЛарионовУрок_06task_06.txt
    Размер файла : 195 байт
    Общее
    Полное имя : D:Практика монтажа. В воздухе пахло весной. Дмитрий ЛарионовУрок_07Lecture_07.pdf
    Размер файла : 260 Кбайт
    Общее
    Полное имя : D:Практика монтажа. Помоему это бабушкины сказки. Дмитрий ЛарионовУрок_07Lesson07.mp4
    Формат : MPEG-4
    Профиль формата : Base Media/Version 2
    Идентификатор кодека : mp42
    Размер файла : 489 Мбайт
    Продолжительность : 1 ч. Я например по сценарию ожидал большой напряженности. 33 м.
    Режим общего битрейта : Переменный
    Общий поток : 735 Кбит/сек
    Программа кодирования : HandBrake 0.10.1 2015030800
    Видео
    Идентификатор : 1
    Формат : AVC
    Формат/Информация : Advanced Video Codec
    Профиль формата :Main@L4.0
    Параметр CABAC формата : Да
    Параметр ReFrames формата : 4 кадра
    Идентификатор кодека : avc1
    Идентификатор кодека/Информация : Advanced Video Coding
    Продолжительность : 1 ч. А был ли мальчик? 33 м.
    Битрейт : 567 Кбит/сек
    Ширина : 1920 пикселей
    Высота : 1080 пикселей
    Соотношение сторон : 16:9
    Режим частоты кадров : Переменный
    Частота кадров : 23, как зеркало стальное, 976 кадра/сек
    Минимальная частота кадров : 23, в большинстве случаев, 949 кадра/сек
    Максимальная частота кадров : 24, будто капли серебряной воды, 000 кадра/сек
    Цветовое пространство : YUV
    Субдискретизация насыщенности : 4:2:0
    Битовая глубина : 8 бит
    Тип развёртки : Прогрессивная
    Бит/(Пиксели*Кадры) : 0.011
    Размер потока : 377 Мбайт (77%)
    Библиотека кодирования : x264 core 142 r2479 dd79a61
    Настройки программы : cabac=1/ref=1/deblock=1:0:0/analyse=0x1:0x111/me=hex/subme=2/psy=1/psy_rd=1.00:0.00/mixed_ref=0/me_range=16/chroma_me=1/trellis=0/8x8dct=0/cqm=0/deadzone=21, привычно, 11/fast_pskip=1/chroma_qp_offset=0/threads=6/lookahead_threads=2/sliced_threads=0/nr=0/decimate=1/interlaced=0/bluray_compat=0/constrained_intra=0/bframes=3/b_pyramid=2/b_adapt=1/b_bias=0/direct=1/weightb=1/open_gop=0/weightp=1/keyint=240/keyint_min=24/scenecut=40/intra_refresh=0/rc_lookahead=10/rc=2pass/mbtree=1/bitrate=567/ratetol=1.0/qcomp=0.60/qpmin=0/qpmax=69/qpstep=4/cplxblur=20.0/qblur=0.5/vbv_maxrate=20000/vbv_bufsize=25000/nal_hrd=none/filler=0/ip_ratio=1.40/aq=1:1.00
    Основные цвета : BT.709
    Характеристики трансфера : BT.709
    Коэффициенты матрицы : BT.709
    Аудио
    Идентификатор : 2
    Формат : AAC
    Формат/Информация : Advanced Audio Codec
    Профиль формата : LC
    Идентификатор кодека : 40
    Продолжительность : 1 ч. Плодами и листвой благоухал осенний сад. 33 м.
    Вид битрейта : Переменный
    Битрейт : 161 Кбит/сек
    Каналы : 2 канала
    Расположение каналов : Front: L R
    Частота : 48, чаще всего, 0 КГц
    Метод сжатия : С потерями
    Размер потока : 107 Мбайт (22%)
    Заголовок : Stereo
    Язык : English
    Общее
    Полное имя : D:Практика монтажа. Это же восьмая вода на киселе. Дмитрий ЛарионовУрок_07task_07.txt
    Размер файла : 121 байт


    Скриншоты для ознакомления




    Практика монтажа. Дмитрий Ларионов (2015) PCRec [H.264]
    загрузка...
    Рейтинг →
     (голосов: 1, оценка 5/5, голосовать можно 1 раз )

    Другие торренты по теме:

  • Практика (2014) WEBRip [H.264] (Сезон 1, Серия 1-34 из 40) (Обновляемая) торрент скачать бесплатно
  • В. И. Урсул | Нацизм: теория и современная практика (2008) [DJVU] скачать через торрент бесплатно
  • [Profileschool] Алексей Довгуля | Мастер-класс Смешанный Свет. Практика применения (2013) PCRec торрент скачать бесплатно
  • Карл Каутский | К критике теории и практики марксизма [Антибернштейн] (2003) [DJVU, PDF] торрент скачать бесплатно
  • Антуан Казанова | Второй Ватиканский собор. Критика идеологии и практики современного католицизма (1973) [DJVU] скачать через торрент бесплатно
  • А.В. Яковенко | pH-Метрия в клинической практике (2001) [PDF] торрент скачать бесплатно
  • Н.В.Загоскина и др. | Биотехнология. Теория и практика (2009) [PDF] торрент скачать бесплатно
  • В.П.Дворкович, А.В.Дворкович | Цифровые видеоинформационные системы (теория и практика) (2012) [PDF] торрент скачать бесплатно


    • Комментарии (0):

      Информация

      Информация

        Посетители, находящиеся в группе Гости, не могут оставлять комментарии в данной новости.

        ↓ Меню




        ↓ Опрос

        Вы добавили сайт в закладки?
        Да
        Нет


        Top 10 за неделю (Книги)