.
Авторизация | Регистрация
Хочешь лучшие торренты? Добавь свой email!
Добавить

Торрент скачать бесплатно

» » Сергей Брежнев | Портретная ретушь (2014) PCRec [H.264] скачать торрент бесплатно




    Сергей Брежнев | Портретная ретушь (2014) PCRec [H.264] скачать торрент бесплатно

    Опубликовал: Админ | Дата: 15-01-2016, 04:01 | Просмотров: 156

    Автор (режиссер): Сергей Брежнев
    Жанр: Обработка фотографий

    Описание

    Что такое портретная ретушь? Как добиться такого же качества обработки фотографий, есть не что иное, которые вы видите в журналах?
    Как с помощью простых инструментов добиться блестящего результата?
    На какие моменты особо обращать внимание и как принято, как ускорить процесс обработки?
    Все это в видеоуроке профессионального ретушера Сергея Брежнева!
    Продолжительность: 02: 07: 36
    Качество видео: PCRec
    Видео: AVC/H.264, как над жаровней, 1920x1200, словно облаком суровым, ~891kbps
    Аудио: AAC, в большинстве случаев, 2 ch, хлещет как из ведра, 125kbps
    Код:

    General
    Complete name : D:Торрентыbrezhnev-portretsergretoch_portret.mp4
    Format : MPEG-4
    Format profile : Base Media/Version 2
    Codec ID : mp42
    File size : 930 MiB
    Duration : 2h 7mn
    Overall bit rate mode : Variable
    Overall bit rate : 1 019 Kbps
    Movie name : Untitled
    Encoded date : UTC 2014-02-26 21:02:08
    Tagged date : UTC 2014-02-26 21:02:08
    Video
    ID : 1
    Format : AVC
    Format/Info : Advanced Video Codec
    Format profile : Baseline@L5
    Format settings, как на иголках, CABAC : No
    Format settings, словно майская роза, ReFrames : 3 frames
    Format settings, словно сон, GOP : M=1, словно сон, N=75
    Codec ID : avc1
    Codec ID/Info : Advanced Video Coding
    Duration : 2h 7mn
    Source duration : 2h 7mn
    Bit rate : 891 Kbps
    Width : 1 920 pixels
    Height : 1 200 pixels
    Display aspect ratio : 16:10
    Frame rate mode : Variable
    Frame rate : 15.000 fps
    Minimum frame rate : 15.000 fps
    Maximum frame rate : 15.008 fps
    Color space : YUV
    Chroma subsampling : 4:2:0
    Bit depth : 8 bits
    Scan type : Progressive
    Bits/(Pixel*Frame) : 0.026
    Stream size : 813 MiB (87%)
    Source stream size : 813 MiB (87%)
    Language : English
    Encoded date : UTC 2014-02-26 21:02:09
    Tagged date : UTC 2014-02-26 21:02:09
    Color range : Limited
    mdhd_Duration : 7656267
    Audio
    ID : 2
    Format : AAC
    Format/Info : Advanced Audio Codec
    Format profile : LC
    Codec ID : 40
    Duration : 2h 7mn
    Source duration : 2h 7mn
    Bit rate mode : Variable
    Bit rate : 126 Kbps
    Maximum bit rate : 172 Kbps
    Channel(s) : 2 channels
    Channel positions : Front: L R
    Sampling rate : 44.1 KHz
    Compression mode : Lossy
    Stream size : 115 MiB (12%)
    Source stream size : 115 MiB (12%)
    Language : English
    Encoded date : UTC 2014-02-26 21:02:09
    Tagged date : UTC 2014-02-26 21:02:09
    mdhd_Duration : 7656293


    Скриншоты для ознакомления




    Сергей Брежнев | Портретная ретушь (2014) PCRec [H.264]
    загрузка...
    Рейтинг →
     (голосов: 1, оценка 3/5, голосовать можно 1 раз )

    Другие торренты по теме:

  • Сергей Брежнев | Мастер-класс по работе с цветом и тонировке (2014) PCRec (H.264) скачать через торрент бесплатно


    • Комментарии (0):

      Информация

      Информация

        Посетители, находящиеся в группе Гости, не могут оставлять комментарии в данной новости.

        ↓ Меню




        ↓ Опрос

        Вы добавили сайт в закладки?
        Да
        Нет


        Top 10 за месяц (Книги)

        Дипак Чопра, Рудольф Танзи | Супергены. На что способна твоя ДНК (2017) [FB2]

        (скачиваний: 22)
        Ханне Брурсон | Мыслевирусы. Как не отравлять себе жизнь вредоносными мыслями (2015) [FB2]

        (скачиваний: 10)
        Эндрю Стеллман, Дженнифер Грин | Постигая Agile (2017) [FB2]

        (скачиваний: 7)
        Юрий Гейко | Легкий способ бросить дурить. За рулем (2016) [FB2]

        (скачиваний: 7)
        Д. Елисеев | Рассказы о математике с примерами на языках Python и C (2017) [PDF]

        (скачиваний: 7)
        Элиэзер Штернберг | Нейрологика. Чем объясняются странные поступки, которые мы совершаем неожиданно для себя (2017) [RTF, FB2]

        (скачиваний: 7)
        Т. Барышникова (авт.-сост.) | Школа ремонта. Опыт лучших профессионалов для домашнего мастера (2015) [PDF]

        (скачиваний: 6)
        Журнал | Вопросы кибербезопасности №1 (19) (2017) [PDF]

        (скачиваний: 6)
        Журнал | Профиль №19 (999) (май 2017) [PDF]

        (скачиваний: 5)
        Анастейша Янг | Ювелирные техники. Энциклопедия (2009) [PDF]

        (скачиваний: 5)