.
Авторизация | Регистрация
Хочешь лучшие торренты? Добавь свой email!
Добавить

Торрент скачать бесплатно

» » fstoppers.com | Как стать профессиональным свадебным фотографом (2013) CamRip [H.264 / 720p] торрент скачать бесплатно




    fstoppers.com | Как стать профессиональным свадебным фотографом (2013) CamRip [H.264 / 720p] торрент скачать бесплатно

    Опубликовал: Админ | Дата: 14-01-2016, 04:02 | Просмотров: 143

    Автор (режиссер): fstoppers.com
    Оригинальное название: How To Become A Professional Commercial Wedding Photographer
    Перевод: Ксения Комендацкая (Studyfoto, 2014г.)
    Жанр: Свадебное фото, фото

    Описание

    Два американских свадебных фотографаПатрик Холл (Patrick Hall) иЛи Моррис (Lee Morris) делятся своими секретами свадебной съемки и ведения бизнеса свадебного фотографа. Основу курса составляют видеоуроки с объяснением технических тонкостей съемки каждого из этапов свадебного дня и даже съемка Love Story. Чисто технические советы разбавляются рекомендациями по построению успешного бизнеса и созданию дополнительных фотопродуктов (видео, слайдшоу).
    Если вы хотите знать, как стать профессиональным фотографом и начать зарабатывать деньги с вашим фотоаппаратом, то самым быстрым способом может быть — свадебная фотография. Это обучающее видео, поможет вам разобраться во всех тонкостях свадебной фотографии. Неважно, являетесь ли вы новичком для фотографий, или профессиональным мастером в съемке свадьбы.
    Видео научит вас всему, что мы применяем в свадебной фотографии так, что вы можете наладить свой собственный бизнес с нуля или поднять уже существующий бизнес на новый уровень...
    Самое интересное в свадебной фотографии является то, что есть рынок, в каждом городе.
    Я считаю, курс свадебной фотографии предлагает удивительную возможность для всех, кто интересуется фотографией как хобби или карьера, через свадебные фотографии, Вы можете стать 100% нужным и занятым в качестве полноправного фотографа!

    Патрик Холл (Patrick Hall) и Ли Моррис (Lee Morris)
    Продолжительность: 06: 52: 57
    Качество видео: CamRip
    Видео: AVC/H.264, 1280x720, ~1148kbps
    Аудио: AAC, 2 ch, 147kbps
    Код:

    General
    Complete name : D:ТоррентыWedding1-Introduction.mp4
    Format : MPEG-4
    Format profile : Base Media/Version 2
    Codec ID : mp42
    File size : 568 MiB
    Duration : 1h 1mn
    Overall bit rate mode : Variable
    Overall bit rate : 1 299 Kbps
    Encoded date : UTC 2014-03-18 20:14:55
    Tagged date : UTC 2014-03-18 20:14:55
    Video
    ID : 1
    Format : AVC
    Format/Info : Advanced Video Codec
    Format profile :High@L3.1
    Format settings, CABAC : Yes
    Format settings, ReFrames : 4 frames
    Codec ID : avc1
    Codec ID/Info : Advanced Video Coding
    Duration : 1h 1mn
    Bit rate : 1 148 Kbps
    Width : 1 280 pixels
    Height : 720 pixels
    Display aspect ratio : 16:9
    Frame rate mode : Constant
    Frame rate : 24.000 fps
    Color space : YUV
    Chroma subsampling : 4:2:0
    Bit depth : 8 bits
    Scan type : Progressive
    Bits/(Pixel*Frame) : 0.052
    Stream size : 502 MiB (88%)
    Writing library : x264 core 140 r2377 1ca7bb9
    Encoding settings : cabac=1/ref=3/deblock=1:0:0/analyse=0x3:0x113/me=hex/subme=7/psy=1/psy_rd=1.00:0.00/mixed_ref=1/me_range=16/chroma_me=1/trellis=1/8x8dct=1/cqm=0/deadzone=21, 11/fast_pskip=1/chroma_qp_offset=-2/threads=12/lookahead_threads=2/sliced_threads=0/nr=0/decimate=1/interlaced=0/bluray_compat=0/stitchable=1/constrained_intra=0/bframes=3/b_pyramid=2/b_adapt=1/b_bias=0/direct=1/weightb=1/open_gop=0/weightp=2/keyint=72/keyint_min=24/scenecut=40/intra_refresh=0/rc_lookahead=40/rc=crf/mbtree=1/crf=20.0/qcomp=0.60/qpmin=5/qpmax=69/qpstep=4/vbv_maxrate=3750/vbv_bufsize=12500/crf_max=0.0/nal_hrd=none/filler=0/ip_ratio=1.40/aq=1:1.00
    Encoded date : UTC 2014-03-18 20:14:55
    Tagged date : UTC 2014-03-18 20:14:55
    Audio
    ID : 2
    Format : AAC
    Format/Info : Advanced Audio Codec
    Format profile : LC
    Codec ID : 40
    Duration : 1h 1mn
    Bit rate mode : Variable
    Bit rate : 147 Kbps
    Channel(s) : 2 channels
    Channel positions : Front: L R
    Sampling rate : 48.0 KHz
    Compression mode : Lossy
    Stream size : 64.2 MiB (11%)
    Encoded date : UTC 2014-03-18 20:14:55
    Tagged date : UTC 2014-03-18 20:14:55


    Скриншоты для ознакомления




    fstoppers.com | Как стать профессиональным свадебным фотографом (2013) CamRip [H.264/720p]
    загрузка...
    Рейтинг →
     (голосов: 1, оценка 4/5, голосовать можно 1 раз )

    Другие торренты по теме:



      Комментарии (0):

      Информация

      Информация

        Посетители, находящиеся в группе Гости, не могут оставлять комментарии в данной новости.

        ↓ Меню




        ↓ Опрос

        Вы добавили сайт в закладки?
        Да
        Нет


        Top 10 за месяц (Книги)

        Джиллиан Майклз | Знаменитая программа Джиллиан Майклз: Стройное и здоровое тело за 30 дней (2016) [FB2]

        (скачиваний: 63)
        И.Б. Фефилова | Антивозрастная медицина. Современная энциклопедия (2015) [PDF, EPUB]

        (скачиваний: 31)
        Михаил Диденко | Русский стиль выживания. Как остаться в живых одному в лесу (2017) [PDF, FB2]

        (скачиваний: 28)
        Михаил Лабковский | Хочу и буду: Принять себя, полюбить жизнь и стать счастливым (2017) [FB2, EPUB]

        (скачиваний: 28)
        Евгений Старухин | Цикл «Лесовик» [4 книги. Обновляемая] (2015-2017) [FB2]

        (скачиваний: 25)
        Александр Клинге | Ленин. Самая правдивая биография Ильича (2017) [FB2, EPUB]

        (скачиваний: 23)
        Джек Дэниелс | От 800 метров до марафона (2014) [FB2]

        (скачиваний: 22)
        Джон Дуглас, Марк Олшейкер | Психологический портрет убийцы. Методики ФБР (2016) [FB2, EPUB]

        (скачиваний: 22)
        Давид Дубницкий | Жанровый НЮ-портрет (2016) PCRec

        (скачиваний: 21)
        Дэвид Агус | Завтра начинается сегодня. Как воспользоваться достижениями anti-age медицины (2017) [FB2, EPUB]

        (скачиваний: 20)