.
Авторизация | Регистрация
Хочешь лучшие торренты? Добавь свой email!
Добавить

Торрент скачать бесплатно

» » Стив Ласмин | Портретная ретушь: алгоритм и практика (2015) PCRec [H.264] торрент скачать бесплатно




    Стив Ласмин | Портретная ретушь: алгоритм и практика (2015) PCRec [H.264] торрент скачать бесплатно

    Опубликовал: Админ | Дата: 13-01-2016, 04:01 | Просмотров: 121

    Автор (режиссер): Стив Ласмин
    Жанр: Обработка фотографий

    Описание

    Темой вебинара является практическая ретушь студийного портрета. Формат вебинара – практикум. О таком странном сюжете не догадывалась даже Тимошенко. В ходе вебинара будет рассмотрен весь процесс ретуши крупного студийного портрета от RAW-конвертации до сохранения готового результата. Особое внимание будет уделено алгоритмизации рабочего процесса, построению универсального алгоритма ретуши и его адаптации под конкретные задачи, а также стилистическим аспектам обработки и вопросам сохранения портретной схожести, естественности при максимальном качестве получаемого результата.
    Хотя вебинар и рассчитан на слушателей, уже имеющих опыт портретной ретуши и уверенно знающих основы и базовые методы работы в Adobe Photoshop, посещение будет также полезно и новичкам, так как позволит изучить алгоритм портретной ретуши и определить направления дальнейшего развития.
    Продолжительность: 03: 25: 16
    Качество видео: PCRec
    Видео: AVC/H.264, 1920x1168, ~355kbps
    Аудио: AAC, 2 ch, 127kbps
    Код:

    General
    Complete name : D:ТоррентыРетушь портрета.mp4
    Format : MPEG-4
    Format profile : Base Media/Version 2
    Codec ID : mp42
    File size : 720 MiB
    Duration : 3h 25mn
    Overall bit rate mode : Variable
    Overall bit rate : 490 Kbps
    Encoded date : UTC 2015-05-27 10:20:19
    Tagged date : UTC 2015-05-27 13:57:55
    Video
    ID : 1
    Format : AVC
    Format/Info : Advanced Video Codec
    Format profile : High@L5
    Format settings, CABAC : Yes
    Format settings, ReFrames : 4 frames
    Codec ID : avc1
    Codec ID/Info : Advanced Video Coding
    Duration : 3h 25mn
    Bit rate : 355 Kbps
    Width : 1 920 pixels
    Height : 1 168 pixels
    Display aspect ratio : 16:10
    Frame rate mode : Variable
    Frame rate : 23.976 fps
    Minimum frame rate : 5.994 fps
    Maximum frame rate : 23.981 fps
    Color space : YUV
    Chroma subsampling : 4:2:0
    Bit depth : 8 bits
    Scan type : Progressive
    Bits/(Pixel*Frame) : 0.007
    Stream size : 521 MiB (72%)
    Writing library : x264 core 123 r2189 35cf912
    Encoding settings : cabac=1/ref=3/deblock=1:0:0/analyse=0x3:0x133/me=hex/subme=7/psy=1/psy_rd=1.00:0.00/mixed_ref=1/me_range=16/chroma_me=1/trellis=1/8x8dct=1/cqm=0/deadzone=21, 11/fast_pskip=1/chroma_qp_offset=-2/threads=12/sliced_threads=0/nr=0/decimate=1/interlaced=0/bluray_compat=0/constrained_intra=0/bframes=3/b_pyramid=2/b_adapt=1/b_bias=0/direct=1/weightb=1/open_gop=0/weightp=2/keyint=250/keyint_min=25/scenecut=40/intra_refresh=0/rc=cqp/mbtree=0/qp=25/ip_ratio=1.40/pb_ratio=1.30/aq=0
    Encoded date : UTC 2015-05-27 10:20:19
    Tagged date : UTC 2015-05-27 13:57:55
    Audio
    ID : 2
    Format : AAC
    Format/Info : Advanced Audio Codec
    Format profile : LC
    Codec ID : 40
    Duration : 3h 25mn
    Source duration : 3h 25mn
    Bit rate mode : Variable
    Bit rate : 128 Kbps
    Channel(s) : 2 channels
    Channel positions : Front: L R
    Sampling rate : 48.0 KHz
    Compression mode : Lossy
    Stream size : 188 MiB (26%)
    Source stream size : 188 MiB (26%)
    Title : Stereo
    Encoded date : UTC 2015-05-27 10:20:19
    Tagged date : UTC 2015-05-27 13:57:55


    Скриншоты для ознакомления




    Стив Ласмин | Портретная ретушь: алгоритм и практика (2015) PCRec [H.264]
    загрузка...
    Рейтинг →
     (голосов: 1, оценка 3/5, голосовать можно 1 раз )

    Другие торренты по теме:

  • Стив / Steve (2010) DVDRip скачать через торрент бесплатно
  • Стив Бланк | Четыре шага к озарению. Стратегии создания успешных стартапов (2014) [PDF, DOC, EPUB] скачать через торрент бесплатно
  • Стив Джобс: Человек в машине / Steve Jobs: The Man in the Machine (2015) HDRip скачать через торрент бесплатно
  • Стив Джобс / Steve Jobs (2015) DVDScr [EN] скачать через торрент бесплатно
  • Стив Джобс / Steve Jobs (2015) DVDScr скачать через торрент бесплатно
  • Стив Павлина | Я сделаю это сегодня! Как перестать откладывать и начать действовать (2015) [FB2] скачать через торрент бесплатно
  • К. Д. Секачева | Стив Джобс. Тот, кто думал иначе (2015) [FB2] скачать через торрент бесплатно
  • Стив Павлина | Курс по личному развитию для умных людей. Мастер-класс от признанного специалиста (2014) [FB2, PDF, DOCX] скачать через торрент бесплатно


    • Комментарии (0):

      Информация

      Информация

        Посетители, находящиеся в группе Гости, не могут оставлять комментарии в данной новости.

        ↓ Меню




        ↓ Опрос

        Вы добавили сайт в закладки?
        Да
        Нет


        Top 10 за месяц (Книги)

        Джиллиан Майклз | Знаменитая программа Джиллиан Майклз: Стройное и здоровое тело за 30 дней (2016) [FB2]

        (скачиваний: 54)
        И.Б. Фефилова | Антивозрастная медицина. Современная энциклопедия (2015) [PDF, EPUB]

        (скачиваний: 31)
        Михаил Диденко | Русский стиль выживания. Как остаться в живых одному в лесу (2017) [PDF, FB2]

        (скачиваний: 27)
        Михаил Лабковский | Хочу и буду: Принять себя, полюбить жизнь и стать счастливым (2017) [FB2, EPUB]

        (скачиваний: 24)
        Александр Клинге | Ленин. Самая правдивая биография Ильича (2017) [FB2, EPUB]

        (скачиваний: 23)
        Джек Дэниелс | От 800 метров до марафона (2014) [FB2]

        (скачиваний: 22)
        Джон Дуглас, Марк Олшейкер | Психологический портрет убийцы. Методики ФБР (2016) [FB2, EPUB]

        (скачиваний: 20)
        Дэвид Агус | Завтра начинается сегодня. Как воспользоваться достижениями anti-age медицины (2017) [FB2, EPUB]

        (скачиваний: 20)
        Давид Дубницкий | Жанровый НЮ-портрет (2016) PCRec

        (скачиваний: 20)
        Евгений Старухин | Цикл «Лесовик» [4 книги. Обновляемая] (2015-2017) [FB2]

        (скачиваний: 20)