.
Авторизация | Регистрация
Хочешь лучшие торренты? Добавь свой email!
Добавить

Торрент скачать бесплатно

» » Paris Christou | Как рисовать Черри 2.0 / How to draw Cherry 2.0 (2015) PCRec [H.264] [EN] торрент скачать бесплатно




    Paris Christou | Как рисовать Черри 2.0 / How to draw Cherry 2.0 (2015) PCRec [H.264] [EN] торрент скачать бесплатно

    Опубликовал: Админ | Дата: 13-01-2016, 04:01 | Просмотров: 150

    Автор (режиссер): Paris Christou
    Производство: USA, Atlanta, Georgia/Сartoonsmart
    Жанр: Cherry

    Описание

    Paris Christou’s original creation, the alluring Cherry, returns to CartoonSmart in this six hour series of real-time illustration instruction. Волк в овечьей шкуре, сказал кто то из толпы, к чему не понятно. Listen and learn as Paris describes his formula for drawing amazing poses time and time again
    Персонаж, созданный Пэрисом Кристу - сексапильная Черри - возвращается на CartoonSmart, а вместе с ней и обучающий цикл по рисованию. Слушайте и наматывайте на ус всё, что будет рассказывать и объяснять Пэрис о своей формуле рисования великолепных поз.
    Продолжительность: 06: 15: 45
    Качество видео: PCRec
    Язык: Английский
    Видео: AVC/H.264, 1196x720, ~504 kbps
    Аудио: AAC, 2 ch, 147 kbps
    Код:

    Общее
    Полное имя : E:DrawingCherryCartoonSmart - How to Draw Cherry 2.0 and The Complete Cherry Pose Packs CollectionHow To Draw2.mp4.mp4
    Формат : MPEG-4
    Профиль формата : Base Media/Version 2
    Идентификатор кодека : mp42 (mp42/mp41/isom/avc1)
    Размер файла : 248 Мбайт
    Продолжительность : 53 м.
    Режим общего битрейта : Переменный
    Общий поток : 643 Кбит/сек
    Название фильма : 430294316.mp4
    Дата кодирования : UTC 2015-10-21 14:00:23
    Дата пометки : UTC 2015-10-21 14:00:23
    Примечание : Recorded and Tagged by Replay Media Catcher 6 (www.applian.com)
    Видео
    Идентификатор : 1
    Формат : AVC
    Формат/Информация : Advanced Video Codec
    Профиль формата :High@L3.1
    Параметр CABAC формата : Да
    Параметр ReFrames формата : 5 кадров
    Идентификатор кодека : avc1
    Идентификатор кодека/Информация : Advanced Video Coding
    Продолжительность : 53 м.
    Битрейт : 491 Кбит/сек
    Ширина : 1196 пикселей
    Высота : 720 пикселей
    Соотношение сторон : 5:3
    Режим частоты кадров : Постоянный
    Частота кадров : 30, 000 кадров/сек
    Цветовое пространство : YUV
    Субдискретизация насыщенности : 4:2:0
    Битовая глубина : 8 бит
    Тип развёртки : Прогрессивная
    Бит/(Пиксели*Кадры) : 0.019
    Размер потока : 189 Мбайт (76%)
    Библиотека кодирования : x264 core 148 r11 73ae2d1
    Настройки программы : cabac=1/ref=5/deblock=1:0:0/analyse=0x3:0x113/me=umh/subme=8/psy=1/psy_rd=1.00:0.00/mixed_ref=1/me_range=16/chroma_me=1/trellis=1/8x8dct=1/cqm=0/deadzone=21, 11/fast_pskip=1/chroma_qp_offset=-2/threads=22/lookahead_threads=3/sliced_threads=0/nr=0/decimate=1/interlaced=0/bluray_compat=0/stitchable=1/constrained_intra=0/bframes=3/b_pyramid=2/b_adapt=2/b_bias=0/direct=3/weightb=1/open_gop=0/weightp=2/keyint=infinite/keyint_min=30/scenecut=40/intra_refresh=0/rc_lookahead=50/rc=crf/mbtree=1/crf=20.0/qcomp=0.60/qpmin=5/qpmax=69/qpstep=4/vbv_maxrate=2750/vbv_bufsize=7500/crf_max=0.0/nal_hrd=none/filler=0/ip_ratio=1.40/aq=1:1.00
    Дата кодирования : UTC 2015-10-21 14:00:23
    Дата пометки : UTC 2015-10-21 14:00:23
    Цветовой диапазон : Limited
    Основные цвета : BT.709
    Характеристики трансфера : BT.709
    Коэффициенты матрицы : BT.709
    Аудио
    Идентификатор : 2
    Формат : AAC
    Формат/Информация : Advanced Audio Codec
    Профиль формата : LC
    Идентификатор кодека : 40
    Продолжительность : 53 м.
    Вид битрейта : Переменный
    Битрейт : 147 Кбит/сек
    Каналы : 2 канала
    Расположение каналов : Front: L R
    Частота : 48, 0 КГц
    Частота кадров : 46, 875 кадров/сек (1024 spf)
    Метод сжатия : С потерями
    Размер потока : 56, 7 Мбайт (23%)
    Дата кодирования : UTC 2015-10-21 14:00:23
    Дата пометки : UTC 2015-10-21 14:00:23


    Скриншоты для ознакомления




    Paris Christou | Как рисовать Черри 2.0/How to draw Cherry 2.0 (2015) PCRec [H.264] [EN]
    загрузка...
    Рейтинг →
     (голосов: 1, оценка 4/5, голосовать можно 1 раз )

    Другие торренты по теме:

  • Alune Wade & Harold Lopez-Nussa - Havana -Paris- Dakar (2015) [FLAC|tracks|WEB-DL]<World Fusion, Afro-cuban Jazz> скачать через торрент бесплатно
  • Nodame Cantabile Paris Hen | Nodame Cantabile Paris Chapter | Нодамэ Кантабиле (второй сезон) [2008, TV, 11 эп.] BDRip 1080p Hi10P raw скачать через торрент бесплатно
  • Paris Hilton - Paris (2006) [APE|Lossless|image + .cue] <Pop, RnB>
  • Paris Connection - Paris Connection (1978) LP [MP3|320 Kbps] <Electronic, Disco>
  • Париж. Тайная история / La Vie sauvage a Paris (Paris: A Wild Story) (2016) DVB
  • Париж любой ценой / Paris a tout prix (2013) BDRip [720p]
  • Прощай, Париж / Adieu Paris (2013) BDRip [576p] iPad
  • VA - Paris Musette Vol. 1 (1990) [MP3|320 кб / с]<Jazz, Gypsy Jazz, Swing> скачать через торрент бесплатно


    • Комментарии (0):

      Информация

      Информация

        Посетители, находящиеся в группе Гости, не могут оставлять комментарии в данной новости.

        ↓ Меню




        ↓ Опрос

        Вы добавили сайт в закладки?
        Да
        Нет


        Top 10 за месяц (Книги)

        Андрей Сазонов | Мифы о нашем теле. Научный подход к примитивным вопросам (2017) [FB2]

        (скачиваний: 31)
        Элла Берту, Сьюзен Элдеркин | Книга как лекарство. Скорая литературная помощь от А до Я (2016) [FB2, EPUB]

        (скачиваний: 28)
        Оуэйн Сервис, Рори Галлахер | Начинай с малого. Научно доказанная система достижения больших целей (2018) [PDF, FB2, EPUB]

        (скачиваний: 27)
        Григорий-Азиз | Фишки Ворда и Экселя [Word and Excel] (2017) PCRec [H.264]

        (скачиваний: 23)
        Юрий Подольский | Делаем сами коптильни, грили, мангалы, уличные печи (2017) [PDF, FB2, EPUB]

        (скачиваний: 23)
        Дмитрий Петров, Алексей Кржижевский | Серия: Полиглот. Выучим иностранный язык за 16 часов [5 книг] (2014-2015) [PDF, DJVU]

        (скачиваний: 22)
        Наталья Корикова | Полезные и вкусные бутерброды. Алгоритм приготовления и рецепты (2017) [PDF]

        (скачиваний: 21)
        Юрий Морозов | Ремонт дачного дома своими руками. Полное руководство (2017) [PDF]

        (скачиваний: 21)
        Кевин Келли | Неизбежно. 12 технологических трендов, которые определяют наше будущее (2017) [PDF, EPUB, MOBI]

        (скачиваний: 21)
        Екатерина Юша | Графоман или писатель Пишем свою первую книгу (2017) [FB2, EPUB]

        (скачиваний: 20)