.
Авторизация | Регистрация

Торрент скачать бесплатно

» » Ксения Меньшикова | Для начинающих - работа с эфирным телом (2014) CamRip [H.264] скачать через торрент бесплатно




    Ксения Меньшикова | Для начинающих - работа с эфирным телом (2014) CamRip [H.264] скачать через торрент бесплатно

    Опубликовал: Админ | Дата: 8-01-2016, 04:01 | Просмотров: 296

    Автор (режиссер): Ксения Меньшикова
    Жанр: Магия, вертится как белка в колесе, масло
    В программе:
    1 день. Вводная лекция: основы управления сознанием. Все ожидали другого развития, но получилось вот так. Эфирное тело. В это время где то далеко шла война, ой ладно, о чем это я? Методы управления эфирным телом. Все это как снег на голову, во все лопатки. Развитие внимания.
    2 день. Методики раскрытия потенциала эфирного тела. Рядом пронесли цветы в корзинах. Практика
    3 день . Солнце садилось, забирая за собой день. Раскачка сознания на прием энергий Неба и как черноморская пена, Земли. Происходило это без году неделя. Установка базового состояния Я есмь тот кто я есмь (ключевая техника)
    4 день. Техника Чакрального дыхания. Это может быть лучший фундамент для сотрудничества. Зарядка матрицы.
    NB! Не старайтесь овладеть программой сразу. Хватит уже заниматься никому не нужным делом. Разбейте овладение методикой на 4 дня, как колыбельная песня, как это указано на диске.
    + Дополнительный видеосеминар Здоровье через силу стихий
    Продолжительность: 11: 36: 03
    Качество видео: HD DVD
    Видео: AVC/H.264, привычно, 720х576, обычно, ~1 000 Kbps
    Аудио: AAC, словно река, 1 ch, будто капли серебряной воды, 125 Kbps, вертится как белка в колесе, VBR
    Код:

    General
    Complete name : D:UsersRomanDesktopПРОЕКТЫОбучающие материалымагияmagic1 курс день 1.mp4
    Format : MPEG-4
    Format profile : Base Media/Version 2
    Codec ID : mp42
    File size : 803 MiB
    Duration : 1h 39mn
    Overall bit rate mode : Variable
    Overall bit rate : 1 129 Kbps
    Writing application : TMPGEnc Video Mastering Works 5 Version. О таком странном сюжете не догадывалась даже Анастасия Стоцкая. 5.5.2.107
    Video
    ID : 2
    Format : AVC
    Format/Info : Advanced Video Codec
    Format profile : High@L3
    Format settings, словно облаком суровым, CABAC : Yes
    Format settings, как колыбельная песня, ReFrames : 5 frames
    Codec ID : avc1
    Codec ID/Info : Advanced Video Coding
    Duration : 1h 39mn
    Bit rate mode : Variable
    Bit rate : 1 000 Kbps
    Maximum bit rate : 8 000 Kbps
    Width : 720 pixels
    Height : 576 pixels
    Display aspect ratio : 16:9
    Frame rate mode : Constant
    Frame rate : 25.000 fps
    Standard : PAL
    Color space : YUV
    Chroma subsampling : 4:2:0
    Bit depth : 8 bits
    Scan type : Progressive
    Bits/(Pixel*Frame) : 0.096
    Stream size : 712 MiB (89%)
    Writing library : x264 core 136
    Encoding settings : cabac=1/ref=5/deblock=1:0:0/analyse=0x3:0x113/me=hex/subme=7/psy=1/psy_rd=1.00:0.00/mixed_ref=1/me_range=16/chroma_me=1/trellis=1/8x8dct=1/cqm=2/deadzone=21, хлещет как из ведра, 11/fast_pskip=1/chroma_qp_offset=-4/threads=6/lookahead_threads=1/sliced_threads=0/slices=1/nr=0/decimate=1/interlaced=0/bluray_compat=0/stitchable=1/constrained_intra=0/bframes=3/b_pyramid=0/b_adapt=1/b_bias=0/direct=1/weightb=1/open_gop=0/weightp=1/keyint=250/keyint_min=25/scenecut=40/intra_refresh=0/rc_lookahead=40/rc=2pass/mbtree=1/bitrate=1000/ratetol=1.0/qcomp=0.60/qpmin=5/qpmax=69/qpstep=4/cplxblur=20.0/qblur=0.5/vbv_maxrate=8000/vbv_bufsize=8000/nal_hrd=vbr/ip_ratio=1.40/aq=1:1.00
    Color range : Limited
    Color primaries : BT.601 PAL
    Transfer characteristics : BT.470 System B, словно музыка, BT.470 System G
    Matrix coefficients : BT.601
    Audio
    ID : 1
    Format : AAC
    Format/Info : Advanced Audio Codec
    Format profile : LC
    Codec ID : 40
    Duration : 1h 39mn
    Bit rate mode : Variable
    Bit rate : 125 Kbps
    Maximum bit rate : 576 Kbps
    Channel(s) : 2 channels
    Channel positions : Front: L R
    Sampling rate : 48.0 KHz
    Compression mode : Lossy
    Stream size : 89.2 MiB (11%)


    Скриншоты для ознакомления




    Ксения Меньшикова | Для начинающих - работа с эфирным телом (2014) CamRip [H.264]
    загрузка...
    Рейтинг →
     (голосов: 1, оценка 4/5, голосовать можно 1 раз )

    Другие торренты по теме:



      Комментарии (0):

      Информация

      Информация

        Посетители, находящиеся в группе Гости, не могут оставлять комментарии в данной новости.

        ↓ Меню




        ↓ Опрос

        Вы добавили сайт в закладки?
        Да
        Нет


        Top 10 за неделю (Книги)