.
Авторизация | Регистрация
Хочешь лучшие торренты? Добавь свой email!
Добавить

Торрент скачать бесплатно

» » Convert Monster | Таргетированная реклама в Facebook и Вконтакте для новичков (2015) PCRec [H.264 / 720p] скачать через торрент бесплатно




    Convert Monster | Таргетированная реклама в Facebook и Вконтакте для новичков (2015) PCRec [H.264 / 720p] скачать через торрент бесплатно

    Опубликовал: Админ | Дата: 2-01-2016, 04:01 | Просмотров: 209

    Автор (режиссер): Convert Monster
    Производство: Россия
    Жанр: SEO, Маркетинг

    Описание

    Чему ты научишься на курсе:
    Составлять портрет целевой аудитории для товара или услуги
    Подбирать точные настройки таргетинга по результатам анализа
    Находить 10 000 потенциальных покупателей во Вконтакте и Facebook
    Писать вкусные продающие объявления, которые выделят вас среди конкурентов
    Подбирать изображения, по которым хочется кликать
    Настраивать ретаргетинг, который увеличит количество покупателей на 30%
    Получать от 1000 кликов из Вконтакте и Facebook от 2 рублей
    Анализировать рекламные кампании, увеличивать число кликов и уменьшать стоимость заявок
    Продолжительность: 10: 55: 22
    Качество видео: PCRec
    Видео: AVC/H.264, 1280x720, ~300 Kbps
    Аудио: AAC, 2 ch, 140 Kbps, VBR
    Код:

    General
    Complete name : C:UsersUserDownloadsТаргетированная реклама в Facebook и Вконтакте для новичковЗанятие 1Таргетированная реклама.mp4
    Format : MPEG-4
    Format profile : Base Media/Version 2
    Codec ID : mp42
    File size : 442 MiB
    Duration : 2h 20mn
    Overall bit rate mode : Variable
    Overall bit rate : 440 Kbps
    Encoded date : UTC 2015-08-07 09:44:01
    Tagged date : UTC 2015-08-07 09:44:01
    gsst : 0
    gstd : 8424060
    gssd : B57F5D88BHM1439237884589186
    gshh : r8---sn-gxuo03g-3c2e.googlevideo.com
    Video
    ID : 1
    Format : AVC
    Format/Info : Advanced Video Codec
    Format profile :High@L3.1
    Format settings, CABAC : Yes
    Format settings, ReFrames : 1 frame
    Codec ID : avc1
    Codec ID/Info : Advanced Video Coding
    Duration : 2h 20mn
    Bit rate : 294 Kbps
    Maximum bit rate : 2 987 Kbps
    Width : 1 280 pixels
    Height : 720 pixels
    Display aspect ratio : 16:9
    Frame rate mode : Constant
    Frame rate : 15.000 fps
    Color space : YUV
    Chroma subsampling : 4:2:0
    Bit depth : 8 bits
    Scan type : Progressive
    Bits/(Pixel*Frame) : 0.021
    Stream size : 296 MiB (67%)
    Tagged date : UTC 2015-08-07 09:44:47
    Audio
    ID : 2
    Format : AAC
    Format/Info : Advanced Audio Codec
    Format profile : LC
    Codec ID : 40
    Duration : 2h 20mn
    Bit rate mode : Variable
    Bit rate : 144 Kbps
    Maximum bit rate : 150 Kbps
    Channel(s) : 1 channel
    Channel positions : Front: C
    Sampling rate : 44.1 KHz
    Compression mode : Lossy
    Stream size : 145 MiB (33%)
    Title : IsoMedia File Produced by Google, 5-11-2011
    Encoded date : UTC 2015-08-07 09:44:24
    Tagged date : UTC 2015-08-07 09:44:47


    Скриншоты для ознакомления




    Convert Monster | Таргетированная реклама в Facebook и Вконтакте для новичков (2015) PCRec [H.264/720p]
    загрузка...
    Рейтинг →
     (голосов: 1, оценка 3/5, голосовать можно 1 раз )

    Другие торренты по теме:

  • Convert Monster | Яндекс.Метрика (2014) PCRec [H.264 / 720p-LQ] скачать через торрент бесплатно
  • Convert Monster | Эффективные объявления (2015) PCRec [H.264] скачать через торрент бесплатно
  • Convert Monster | Тренинг по тестированию посадочных страниц «Эффективный А / Б тест» (2015) PCRec [H.264 / 720p] скачать через торрент бесплатно
  • Convert Monster | Интенсивный курс по таргетированной рекламе Вконтакте (2015) PCRec [H.264] скачать через торрент бесплатно
  • Convert Monster | Идеальный Яндек.Директ 2.0 (2015) PCRec [H.264] скачать через торрент бесплатно
  • Convert Monster | Идеальный Landing Page 2.0 (2015) PCRec [H.264] скачать через торрент бесплатно
  • Convert Monster | Идеальный E-mail маркетинг для твоего бизнеса (2014) PCRec [H.264] скачать через торрент бесплатно
  • Convert Monster | Идеальный Landing Page, Яндекс.Директ, Google AdWords + Бонусы [VIP] (2014) PCRec [H.264 / 720p] скачать через торрент бесплатно


    • Комментарии (0):

      Информация

      Информация

        Посетители, находящиеся в группе Гости, не могут оставлять комментарии в данной новости.

        ↓ Меню




        ↓ Опрос

        Вы добавили сайт в закладки?
        Да
        Нет


        Top 10 за месяц (Книги)

        Джиллиан Майклз | Знаменитая программа Джиллиан Майклз: Стройное и здоровое тело за 30 дней (2016) [FB2]

        (скачиваний: 54)
        И.Б. Фефилова | Антивозрастная медицина. Современная энциклопедия (2015) [PDF, EPUB]

        (скачиваний: 31)
        Михаил Диденко | Русский стиль выживания. Как остаться в живых одному в лесу (2017) [PDF, FB2]

        (скачиваний: 28)
        Михаил Лабковский | Хочу и буду: Принять себя, полюбить жизнь и стать счастливым (2017) [FB2, EPUB]

        (скачиваний: 25)
        Александр Клинге | Ленин. Самая правдивая биография Ильича (2017) [FB2, EPUB]

        (скачиваний: 23)
        Евгений Старухин | Цикл «Лесовик» [4 книги. Обновляемая] (2015-2017) [FB2]

        (скачиваний: 22)
        Джек Дэниелс | От 800 метров до марафона (2014) [FB2]

        (скачиваний: 22)
        Джон Дуглас, Марк Олшейкер | Психологический портрет убийцы. Методики ФБР (2016) [FB2, EPUB]

        (скачиваний: 22)
        Дэвид Агус | Завтра начинается сегодня. Как воспользоваться достижениями anti-age медицины (2017) [FB2, EPUB]

        (скачиваний: 20)
        Давид Дубницкий | Жанровый НЮ-портрет (2016) PCRec

        (скачиваний: 20)