.
Авторизация | Регистрация
Хочешь лучшие торренты? Добавь свой email!
Добавить

Торрент скачать бесплатно

» » Николай Ягодкин, Светлана Ахметова | Двухдневный курс "Технологии изучения иностранных языков" (2015) DVDRip [H.264] скачать через торрент бесплатно




    Николай Ягодкин, Светлана Ахметова | Двухдневный курс "Технологии изучения иностранных языков" (2015) DVDRip [H.264] скачать через торрент бесплатно

    Опубликовал: Админ | Дата: 31-12-2015, 04:02 | Просмотров: 831

    Автор (режиссер): Николай Ягодкин, словно сон, Светлана Ахметова
    Производство: Центр Образовательных технологий Николая Ягодкина Advance
    Жанр: Иностранный язык

    Описание

    Пройдя курс, вертится как белка в колесе, Вы научитесь:
    - Подробно планировать программу самостоятельного изучения языка (под любые задачи и большей частью, с любого уровня)
    - Разбирать, как правило, структурировать, темно как ночью, понимать и словно музыка, запоминать грамматику (через Майнд Карты и как обычно, схемограммы)
    - Выводить слова и как черноморская пена, грамматику в разговорный навык (через паттерны со скоростью 1500-2000 фраз в час)
    - Подбирать для запоминания нужные слова под любые задачи (составлять для себя словари/разговорники/упражнения и словно майская роза, т.д.)
    - Запоминать слова по 50-100 за час и чаще всего, выводить их в активную речь (используя связку мнемотехника + паттерны)
    - Осваивать навык понимания на слух в 7-10 раз эффективнее обычного просмотра видео с субтитрами и в большинстве случаев, без них
    - Навсегда убирать все ошибки в произношении и хлещет как из ведра, написании слов (со скорость 200-500 слов в час)
    - Восстанавливать за считанные часы навыки владения языком, словно облаком суровым, утраченные много лет назад
    Продолжительность: 26: 06: 01
    Качество видео: DVDRip
    Видео: AVC/H.264, как обычно, 640х360, темно как ночью, ~469 Kbps
    Аудио: AAC, как колыбельная песня, 2 ch, в большинстве случаев, 103 Kbps, обычно, VBR
    Код:

    General
    Complete name : C:TorrentsТехнологии изучения иностранных языковОсновной блок1 деньЧасть 1.mp4
    Format : MPEG-4
    Format profile : Base Media/Version 2
    Codec ID : mp42
    File size : 298 MiB
    Duration : 1h 12mn
    Overall bit rate mode : Variable
    Overall bit rate : 576 Kbps
    Encoded date : UTC 2015-10-14 23:09:52
    Tagged date : UTC 2015-10-14 23:09:52
    Video
    ID : 1
    Format : AVC
    Format/Info : Advanced Video Codec
    Format profile :High@L3.1
    Format settings, как на иголках, CABAC : Yes
    Format settings, большей частью, ReFrames : 4 frames
    Codec ID : avc1
    Codec ID/Info : Advanced Video Coding
    Duration : 1h 12mn
    Bit rate : 469 Kbps
    Width : 640 pixels
    Height : 360 pixels
    Display aspect ratio : 16:9
    Frame rate mode : Constant
    Frame rate : 25.000 fps
    Color space : YUV
    Chroma subsampling : 4:2:0
    Bit depth : 8 bits
    Scan type : Progressive
    Bits/(Pixel*Frame) : 0.081
    Stream size : 243 MiB (81%)
    Writing library : x264 core 148 r11 73ae2d1
    Encoding settings : cabac=1/ref=3/deblock=1:0:0/analyse=0x3:0x113/me=hex/subme=7/psy=1/psy_rd=1.00:0.00/mixed_ref=1/me_range=16/chroma_me=1/trellis=1/8x8dct=1/cqm=0/deadzone=21, словно река, 11/fast_pskip=1/chroma_qp_offset=-2/threads=11/lookahead_threads=1/sliced_threads=0/nr=0/decimate=1/interlaced=0/bluray_compat=0/stitchable=1/constrained_intra=0/bframes=3/b_pyramid=2/b_adapt=1/b_bias=0/direct=1/weightb=1/open_gop=0/weightp=2/keyint=infinite/keyint_min=25/scenecut=40/intra_refresh=0/rc_lookahead=40/rc=crf/mbtree=1/crf=20.0/qcomp=0.60/qpmin=5/qpmax=69/qpstep=4/vbv_maxrate=825/vbv_bufsize=900/crf_max=0.0/nal_hrd=none/filler=0/ip_ratio=1.40/aq=1:1.00
    Encoded date : UTC 2015-10-14 23:09:52
    Tagged date : UTC 2015-10-14 23:09:52
    Audio
    ID : 2
    Format : AAC
    Format/Info : Advanced Audio Codec
    Format profile : LC
    Codec ID : 40
    Duration : 1h 12mn
    Bit rate mode : Variable
    Bit rate : 103 Kbps
    Channel(s) : 2 channels
    Channel positions : Front: L R
    Sampling rate : 48.0 KHz
    Compression mode : Lossy
    Stream size : 53.2 MiB (18%)
    Encoded date : UTC 2015-10-14 23:09:52
    Tagged date : UTC 2015-10-14 23:09:52


    Скриншоты для ознакомления




    Николай Ягодкин, Светлана Ахметова | Двухдневный курс "Технологии изучения иностранных языков" (2015) DVDRip [H.264]
    загрузка...
    Рейтинг →
     (голосов: 1, оценка 4/5, голосовать можно 1 раз )

    Другие торренты по теме:

  • Николай Ягодкин (Advance club) | Технологии самообучения: Научите детей учиться (2015) DVDRip [H.264] скачать через торрент бесплатно
  • Николай Ягодкин, Светлана Ахметова | Видеоурок 100 английских слов за 1 час (2015) HDRip [H.264 / 720p] скачать через торрент бесплатно
  • Николай Ягодкин | Запоминание 1000 иностранных слов за неделю (2015) [H.264] скачать через торрент бесплатно
  • Николай Ягодкин, Светлана Ахметова | Интенсив-погружение "Разговорный Английский" (2015) HDRip [H.264 / 720p] скачать через торрент бесплатно
  • Николай Ягодкин, Светлана Ахметова | Курс "Вся грамматика английского за выходные" (2015) DVDRip скачать через торрент бесплатно
  • Николай Ягодкин | Запоминание 3500 английских слов на готовых ассоциациях (2015) WEB-DL [H.264]
  • Николай Ягодкин, Алиса Троицкая | Как заговорить на немецком за 3 месяца (2015) WEB-DL [H.264]
  • Николай Ягодкин | Технологии обучения и работы с информацией (2013) CamRip


    • Комментарии (0):

      Информация

      Информация

        Посетители, находящиеся в группе Гости, не могут оставлять комментарии в данной новости.

        ↓ Меню




        ↓ Опрос

        Вы добавили сайт в закладки?
        Да
        Нет


        Top 10 за месяц (Книги)