.
Авторизация | Регистрация
Хочешь лучшие торренты? Добавь свой email!
Добавить

Торрент скачать бесплатно

» » Николай Ягодкин, Светлана Ахметова | Курс "Вся грамматика английского за выходные" (2015) DVDRip скачать через торрент бесплатно




    Николай Ягодкин, Светлана Ахметова | Курс "Вся грамматика английского за выходные" (2015) DVDRip скачать через торрент бесплатно

    Опубликовал: Админ | Дата: 31-12-2015, 04:02 | Просмотров: 790

    Автор (режиссер): Николай Ягодкин, Светлана Ахметова
    Производство: Центр Образовательных технологий Николая Ягодкина Advance
    Жанр: Английский язык

    Описание

    На курсе Вы разберете, поймете и запомните всю грамматику разговорного английского языка!
    РЕЗУЛЬТАТ: Пройдя курс, Вы сможете составить любое предложение на английском, если знаете слова.
    КАЖДУЮ ГРАММАТИЧЕСКУЮ ТЕМУ АНГЛИЙСКОГО ЯЗЫКА МЫ ВМЕСТЕ С ВАМИ: Полностью разбираем и представляем в виде простой и удобной Майнд карты. Запоминаем со 100% очностью с помощью технологий Advance. ВЫ ПОЛУЧИТЕ ОТВЕТЫ НА ВСЕ ВОПРОСЫ ОБ АНГЛИЙСКОЙ ГРАММАТИКЕ!
    Продолжительность: 10: 53: 32
    Качество видео: DVDRip
    Видео: WMV3, 800x448-864x488, ~1445 Kbps
    Аудио: WMA, 2 ch, 96 Kbps, CBR
    Код:

    General
    Complete name : C:TorrentsВся грамматика английского за выходныеАнглийская грамматика 1.wmv
    Format : Windows Media
    File size : 3.42 GiB
    Duration : 5h 14mn
    Overall bit rate mode : Variable
    Overall bit rate : 1 556 Kbps
    Maximum Overall bit rate : 3 335 Kbps
    Encoded date : UTC 2015-10-10 09:09:56.253
    Video
    ID : 2
    Format : VC-1
    Format profile : MP@HL
    Codec ID : WMV3
    Codec ID/Info : Windows Media Video 9
    Codec ID/Hint : WMV3
    Description of the codec : Windows Media Video 9
    Duration : 5h 14mn
    Bit rate mode : Variable
    Bit rate : 1 445 Kbps
    Width : 864 pixels
    Height : 488 pixels
    Display aspect ratio : 16:9
    Frame rate : 20.000 fps
    Bit depth : 8 bits
    Compression mode : Lossy
    Bits/(Pixel*Frame) : 0.171
    Stream size : 3.17 GiB (93%)
    Language : English (US)
    Audio
    ID : 1
    Format : WMA
    Format version : Version 2
    Codec ID : 161
    Codec ID/Info : Windows Media Audio
    Description of the codec : Windows Media Audio 9.2 - 96 kbps, 44 kHz, stereo 1-pass CBR
    Duration : 5h 14mn
    Bit rate mode : Constant
    Bit rate : 96.0 Kbps
    Channel(s) : 2 channels
    Sampling rate : 44.1 KHz
    Bit depth : 16 bits
    Stream size : 216 MiB (6%)
    Language : English (US)


    Скриншоты для ознакомления




    Николай Ягодкин, Светлана Ахметова | Курс "Вся грамматика английского за выходные" (2015) DVDRip
    загрузка...
    Рейтинг →
     (голосов: 1, оценка 5/5, голосовать можно 1 раз )

    Другие торренты по теме:

  • Николай Ягодкин (Advance club) | Технологии самообучения: Научите детей учиться (2015) DVDRip [H.264] скачать через торрент бесплатно
  • Николай Ягодкин, Светлана Ахметова | Видеоурок 100 английских слов за 1 час (2015) HDRip [H.264 / 720p] скачать через торрент бесплатно
  • Николай Ягодкин | Запоминание 1000 иностранных слов за неделю (2015) [H.264] скачать через торрент бесплатно
  • Николай Ягодкин, Светлана Ахметова | Интенсив-погружение "Разговорный Английский" (2015) HDRip [H.264 / 720p] скачать через торрент бесплатно
  • Николай Ягодкин, Светлана Ахметова | Двухдневный курс "Технологии изучения иностранных языков" (2015) DVDRip [H.264] скачать через торрент бесплатно
  • Николай Ягодкин | Запоминание 3500 английских слов на готовых ассоциациях (2015) WEB-DL [H.264]
  • Николай Ягодкин, Алиса Троицкая | Как заговорить на немецком за 3 месяца (2015) WEB-DL [H.264]
  • Николай Ягодкин | Технологии обучения и работы с информацией (2013) CamRip


    • Комментарии (0):

      Информация

      Информация

        Посетители, находящиеся в группе Гости, не могут оставлять комментарии в данной новости.

        ↓ Меню




        ↓ Опрос

        Вы добавили сайт в закладки?
        Да
        Нет


        Top 10 за месяц (Книги)

        Джиллиан Майклз | Знаменитая программа Джиллиан Майклз: Стройное и здоровое тело за 30 дней (2016) [FB2]

        (скачиваний: 54)
        И.Б. Фефилова | Антивозрастная медицина. Современная энциклопедия (2015) [PDF, EPUB]

        (скачиваний: 31)
        Михаил Диденко | Русский стиль выживания. Как остаться в живых одному в лесу (2017) [PDF, FB2]

        (скачиваний: 27)
        Михаил Лабковский | Хочу и буду: Принять себя, полюбить жизнь и стать счастливым (2017) [FB2, EPUB]

        (скачиваний: 24)
        Александр Клинге | Ленин. Самая правдивая биография Ильича (2017) [FB2, EPUB]

        (скачиваний: 23)
        Джек Дэниелс | От 800 метров до марафона (2014) [FB2]

        (скачиваний: 22)
        Евгений Старухин | Цикл «Лесовик» [4 книги. Обновляемая] (2015-2017) [FB2]

        (скачиваний: 20)
        Джон Дуглас, Марк Олшейкер | Психологический портрет убийцы. Методики ФБР (2016) [FB2, EPUB]

        (скачиваний: 20)
        Дэвид Агус | Завтра начинается сегодня. Как воспользоваться достижениями anti-age медицины (2017) [FB2, EPUB]

        (скачиваний: 20)
        Давид Дубницкий | Жанровый НЮ-портрет (2016) PCRec

        (скачиваний: 20)