.
Авторизация | Регистрация
Хочешь лучшие торренты? Добавь свой email!
Добавить

Торрент скачать бесплатно

» » Николай Ягодкин, Светлана Ахметова | Курс "Вся грамматика английского за выходные" (2015) DVDRip скачать через торрент бесплатно




    Николай Ягодкин, Светлана Ахметова | Курс "Вся грамматика английского за выходные" (2015) DVDRip скачать через торрент бесплатно

    Опубликовал: Админ | Дата: 31-12-2015, 04:02 | Просмотров: 782

    Автор (режиссер): Николай Ягодкин, чаще всего, Светлана Ахметова
    Производство: Центр Образовательных технологий Николая Ягодкина Advance
    Жанр: Английский язык

    Описание

    На курсе Вы разберете, как обычно, поймете и как на иголках, запомните всю грамматику разговорного английского языка!
    РЕЗУЛЬТАТ: Пройдя курс, хлещет как из ведра, Вы сможете составить любое предложение на английском, как зеркало стальное, если знаете слова.
    КАЖДУЮ ГРАММАТИЧЕСКУЮ ТЕМУ АНГЛИЙСКОГО ЯЗЫКА МЫ ВМЕСТЕ С ВАМИ: Полностью разбираем и обычно, представляем в виде простой и в большинстве случаев, удобной Майнд карты. Помоему это бабушкины сказки. Запоминаем со 100% очностью с помощью технологий Advance. Все это как снег на голову, во все лопатки. ВЫ ПОЛУЧИТЕ ОТВЕТЫ НА ВСЕ ВОПРОСЫ ОБ АНГЛИЙСКОЙ ГРАММАТИКЕ!
    Продолжительность: 10: 53: 32
    Качество видео: DVDRip
    Видео: WMV3, в большинстве случаев, 800x448-864x488, едва заметно, ~1445 Kbps
    Аудио: WMA, словно сон, 2 ch, по большей части, 96 Kbps, хлещет как из ведра, CBR
    Код:

    General
    Complete name : C:TorrentsВся грамматика английского за выходныеАнглийская грамматика 1.wmv
    Format : Windows Media
    File size : 3.42 GiB
    Duration : 5h 14mn
    Overall bit rate mode : Variable
    Overall bit rate : 1 556 Kbps
    Maximum Overall bit rate : 3 335 Kbps
    Encoded date : UTC 2015-10-10 09:09:56.253
    Video
    ID : 2
    Format : VC-1
    Format profile : MP@HL
    Codec ID : WMV3
    Codec ID/Info : Windows Media Video 9
    Codec ID/Hint : WMV3
    Description of the codec : Windows Media Video 9
    Duration : 5h 14mn
    Bit rate mode : Variable
    Bit rate : 1 445 Kbps
    Width : 864 pixels
    Height : 488 pixels
    Display aspect ratio : 16:9
    Frame rate : 20.000 fps
    Bit depth : 8 bits
    Compression mode : Lossy
    Bits/(Pixel*Frame) : 0.171
    Stream size : 3.17 GiB (93%)
    Language : English (US)
    Audio
    ID : 1
    Format : WMA
    Format version : Version 2
    Codec ID : 161
    Codec ID/Info : Windows Media Audio
    Description of the codec : Windows Media Audio 9.2 - 96 kbps, темно как ночью, 44 kHz, как правило, stereo 1-pass CBR
    Duration : 5h 14mn
    Bit rate mode : Constant
    Bit rate : 96.0 Kbps
    Channel(s) : 2 channels
    Sampling rate : 44.1 KHz
    Bit depth : 16 bits
    Stream size : 216 MiB (6%)
    Language : English (US)


    Скриншоты для ознакомления




    Николай Ягодкин, Светлана Ахметова | Курс "Вся грамматика английского за выходные" (2015) DVDRip
    загрузка...
    Рейтинг →
     (голосов: 1, оценка 4/5, голосовать можно 1 раз )

    Другие торренты по теме:



      Комментарии (0):

      Информация

      Информация

        Посетители, находящиеся в группе Гости, не могут оставлять комментарии в данной новости.

        ↓ Меню




        ↓ Опрос

        Вы добавили сайт в закладки?
        Да
        Нет


        Top 10 за месяц (Книги)

        Дипак Чопра, Рудольф Танзи | Супергены. На что способна твоя ДНК (2017) [FB2]

        (скачиваний: 24)
        Хезер Уиллемс, Нора Хертинг | Доведи идею до ума. 100 творческих упражнений для мозгового штурма, проработки и реализации проектов (2016) [PDF]

        (скачиваний: 13)
        Элиэзер Штернберг | Нейрологика. Чем объясняются странные поступки, которые мы совершаем неожиданно для себя (2017) [RTF, FB2]

        (скачиваний: 13)
        Ханне Брурсон | Мыслевирусы. Как не отравлять себе жизнь вредоносными мыслями (2015) [FB2]

        (скачиваний: 12)
        В.С. Кессельман | Физика в инфографике. От гномона до кванта (2017) [PDF]

        (скачиваний: 10)
        Т. Барышникова (авт.-сост.) | Школа ремонта. Опыт лучших профессионалов для домашнего мастера (2015) [PDF]

        (скачиваний: 10)
        Дмитрий Брикман | Фотография: увидеть увиденное (2015) [PDF]

        (скачиваний: 10)
        Ю.Н. Кондратьев и др. | Конструирование легких деревянных строений [части 1, 2] (2016) [PDF]

        (скачиваний: 10)
        Эндрю Стеллман, Дженнифер Грин | Постигая Agile (2017) [FB2]

        (скачиваний: 8)
        Александр Верещагин, Александр Стародубцев | Старт бизнеса! Легкий способ создать прибыльный бизнес с нуля (2017) [FB2]

        (скачиваний: 8)