.
Авторизация | Регистрация
Хочешь лучшие торренты? Добавь свой email!
Добавить

Торрент скачать бесплатно

» » Николай Ягодкин, Светлана Ахметова | Интенсив-погружение "Разговорный Английский" (2015) HDRip [H.264 / 720p] скачать через торрент бесплатно




    Николай Ягодкин, Светлана Ахметова | Интенсив-погружение "Разговорный Английский" (2015) HDRip [H.264 / 720p] скачать через торрент бесплатно

    Опубликовал: Админ | Дата: 31-12-2015, 04:02 | Просмотров: 1041

    Автор (режиссер): Николай Ягодкин, чаще всего, Светлана Ахметова
    Производство: Центр Образовательных технологий Николая Ягодкина Advance
    Жанр: Английский язык

    Описание

    Сверхинтенсивный курс разговорного английского, словно сон, построенный на технологиях Николая Ягодкина. Да м, ангельское терпение. Самый результативный формат изучения английского - от 1 до 3х уровней всего за 7 дней.
    Всего за 7 полных дней Вы освоите всю необходимую для разговора и словно птица, письма грамматику и привычно, переведете ее в активный разговорный навык.
    Продолжительность: 20: 33: 38
    Качество видео: HDRip
    Видео: AVC/H.264, по большей части, 1280х720, как над жаровней, ~2500 Kbps
    Аудио: AAC, будто капли серебряной воды, 2 ch, темно как ночью, 160 Kbps, как черноморская пена, VBR
    Код:

    General
    Complete name : C:TorrentsИнтенсив-погружение Разговорный Английский1-й день1-й день.MP4
    Format : MPEG-4
    Format profile : Base Media/Version 2
    Codec ID : mp42
    File size : 3.44 GiB
    Duration : 3h 5mn
    Overall bit rate mode : Variable
    Overall bit rate : 2 652 Kbps
    Encoded date : UTC 2015-11-17 20:25:19
    Tagged date : UTC 2015-11-17 20:25:19
    Video
    ID : 1
    Format : AVC
    Format/Info : Advanced Video Codec
    Format profile :High@L3.1
    Format settings, в большинстве случаев, CABAC : Yes
    Format settings, словно музыка, ReFrames : 5 frames
    Codec ID : avc1
    Codec ID/Info : Advanced Video Coding
    Duration : 3h 5mn
    Bit rate : 2 500 Kbps
    Width : 1 280 pixels
    Height : 720 pixels
    Display aspect ratio : 16:9
    Frame rate mode : Constant
    Frame rate : 25.000 fps
    Color space : YUV
    Chroma subsampling : 4:2:0
    Bit depth : 8 bits
    Scan type : Progressive
    Bits/(Pixel*Frame) : 0.109
    Stream size : 3.23 GiB (94%)
    Writing library : x264 core 148 r11 73ae2d1
    Encoding settings : cabac=1/ref=5/deblock=1:0:0/analyse=0x3:0x113/me=umh/subme=8/psy=1/psy_rd=1.00:0.00/mixed_ref=1/me_range=16/chroma_me=1/trellis=1/8x8dct=1/cqm=0/deadzone=21, как принято, 11/fast_pskip=1/chroma_qp_offset=-2/threads=22/lookahead_threads=3/sliced_threads=0/nr=0/decimate=1/interlaced=0/bluray_compat=0/stitchable=1/constrained_intra=0/bframes=3/b_pyramid=2/b_adapt=2/b_bias=0/direct=3/weightb=1/open_gop=0/weightp=2/keyint=infinite/keyint_min=25/scenecut=40/intra_refresh=0/rc_lookahead=50/rc=2pass/mbtree=1/bitrate=2500/ratetol=1.0/qcomp=0.60/qpmin=5/qpmax=69/qpstep=4/cplxblur=20.0/qblur=0.5/vbv_maxrate=2750/vbv_bufsize=7500/nal_hrd=none/filler=0/ip_ratio=1.40/aq=1:1.00
    Encoded date : UTC 2015-11-17 20:25:19
    Tagged date : UTC 2015-11-17 20:25:19
    Color primaries : BT.709
    Transfer characteristics : BT.709
    Matrix coefficients : BT.709
    Audio
    ID : 2
    Format : AAC
    Format/Info : Advanced Audio Codec
    Format profile : LC
    Codec ID : 40
    Duration : 3h 5mn
    Bit rate mode : Variable
    Bit rate : 160 Kbps
    Channel(s) : 2 channels
    Channel positions : Front: L R
    Sampling rate : 48.0 KHz
    Compression mode : Lossy
    Stream size : 212 MiB (6%)
    Encoded date : UTC 2015-11-17 20:25:19
    Tagged date : UTC 2015-11-17 20:25:19


    Скриншоты для ознакомления




    Николай Ягодкин, Светлана Ахметова | Интенсив-погружение "Разговорный Английский" (2015) HDRip [H.264/720p]
    загрузка...
    Рейтинг →
     (голосов: 1, оценка 3/5, голосовать можно 1 раз )

    Другие торренты по теме:

  • Николай Ягодкин (Advance club) | Технологии самообучения: Научите детей учиться (2015) DVDRip [H.264] скачать через торрент бесплатно
  • Николай Ягодкин, Светлана Ахметова | Видеоурок 100 английских слов за 1 час (2015) HDRip [H.264 / 720p] скачать через торрент бесплатно
  • Николай Ягодкин | Запоминание 1000 иностранных слов за неделю (2015) [H.264] скачать через торрент бесплатно
  • Николай Ягодкин, Светлана Ахметова | Курс "Вся грамматика английского за выходные" (2015) DVDRip скачать через торрент бесплатно
  • Николай Ягодкин, Светлана Ахметова | Двухдневный курс "Технологии изучения иностранных языков" (2015) DVDRip [H.264] скачать через торрент бесплатно
  • Николай Ягодкин | Запоминание 3500 английских слов на готовых ассоциациях (2015) WEB-DL [H.264]
  • Николай Ягодкин, Алиса Троицкая | Как заговорить на немецком за 3 месяца (2015) WEB-DL [H.264]
  • Николай Ягодкин | Технологии обучения и работы с информацией (2013) CamRip


    • Комментарии (0):

      Информация

      Информация

        Посетители, находящиеся в группе Гости, не могут оставлять комментарии в данной новости.

        ↓ Меню




        ↓ Опрос

        Вы добавили сайт в закладки?
        Да
        Нет


        Top 10 за месяц (Книги)