.
Авторизация | Регистрация
Хочешь лучшие торренты? Добавь свой email!
Добавить

Торрент скачать бесплатно

» » [Profileschool] Дмитрий Шатров | Adobe Lightroom: Практика обработки фотографий (2015) PCRec [H.264] скачать через торрент бесплатно




    [Profileschool] Дмитрий Шатров | Adobe Lightroom: Практика обработки фотографий (2015) PCRec [H.264] скачать через торрент бесплатно

    Опубликовал: Админ | Дата: 31-12-2015, 04:02 | Просмотров: 261

    Автор (режиссер): Profileschool Дмитрий Шатров
    Жанр: Обработка фото

    Описание

    Adobe Lightroom: Практика обработки фотографий – это практикум по работе в Adobe Lightroom для продвинутых пользователей, едва заметно, построенный на уникальных примерах.
    Продолжительность: 03: 52: 35
    Качество видео: PCRec
    Видео: AVC/H.264, в большинстве случаев, 1680x944, словно птица, ~321 Kbps
    Аудио: AAC, как колыбельная песня, 2 ch, словно майская роза, 254 Kbps
    Код:

    General
    Complete name : D:DownloadsKursiШатров - Adobe Lightroom Практика обработки фотографий1.mp4
    Format : MPEG-4
    Format profile : Base Media/Version 2
    Codec ID : mp42
    File size : 361 MiB
    Duration : 1h 27mn
    Overall bit rate mode : Variable
    Overall bit rate : 578 Kbps
    Encoded date : UTC 2015-11-22 11:56:17
    Tagged date : UTC 2015-11-22 11:56:17
    Video
    ID : 1
    Format : AVC
    Format/Info : Advanced Video Codec
    Format profile :Main@L4.0
    Format settings, будто капли серебряной воды, CABAC : Yes
    Format settings, есть не что иное, ReFrames : 3 frames
    Codec ID : avc1
    Codec ID/Info : Advanced Video Coding
    Duration : 1h 27mn
    Bit rate : 321 Kbps
    Width : 1 680 pixels
    Height : 944 pixels
    Display aspect ratio : 16:9
    Frame rate mode : Constant
    Frame rate : 30.000 fps
    Standard : NTSC
    Color space : YUV
    Chroma subsampling : 4:2:0
    Bit depth : 8 bits
    Scan type : Progressive
    Bits/(Pixel*Frame) : 0.007
    Stream size : 201 MiB (56%)
    Language : English
    Encoded date : UTC 2015-11-22 11:56:17
    Tagged date : UTC 2015-11-22 11:56:17
    Audio
    ID : 2
    Format : AAC
    Format/Info : Advanced Audio Codec
    Format profile : LC
    Codec ID : 40
    Duration : 1h 27mn
    Bit rate mode : Variable
    Bit rate : 254 Kbps
    Maximum bit rate : 428 Kbps
    Channel(s) : 2 channels
    Channel positions : Front: L R
    Sampling rate : 44.1 KHz
    Compression mode : Lossy
    Stream size : 159 MiB (44%)
    Language : English
    Encoded date : UTC 2015-11-22 11:56:17
    Tagged date : UTC 2015-11-22 11:56:17


    Скриншоты для ознакомления




    [Profileschool] Дмитрий Шатров | Adobe Lightroom: Практика обработки фотографий (2015) PCRec [H.264]
    загрузка...
    Рейтинг →
     (голосов: 1, оценка 5/5, голосовать можно 1 раз )

    Другие торренты по теме:

  • [Profileschool] Дмитрий Ларионов | Adobe Premiere Pro. Базовый уровень (2014) PCRec [H.264] скачать через торрент бесплатно
  • [profileschool] Дмитрий Шатров | Обработка: что делать с кадром (2014) PCRec
  • [Profileschool] Дмитрий Шатров | Природные шедевры мастеров (2014) PCRec
  • [Profileschool] Дмитрий Шатров | Жанровая съемка в путешествии (2015) PCRec скачать через торрент бесплатно


    • Комментарии (0):

      Информация

      Информация

        Посетители, находящиеся в группе Гости, не могут оставлять комментарии в данной новости.

        ↓ Меню




        ↓ Опрос

        Вы добавили сайт в закладки?
        Да
        Нет


        Top 10 за месяц (Книги)