.
Авторизация | Регистрация
Хочешь лучшие торренты? Добавь свой email!
Добавить

Торрент скачать бесплатно

» » Николай Ягодкин | Запоминание 1000 иностранных слов за неделю (2015) [H.264] скачать через торрент бесплатно




    Николай Ягодкин | Запоминание 1000 иностранных слов за неделю (2015) [H.264] скачать через торрент бесплатно

    Опубликовал: Админ | Дата: 30-12-2015, 04:01 | Просмотров: 911

    Автор (режиссер): Николай Ягодкин
    Производство: Центр Образовательных технологий Николая Ягодкина Advance
    Жанр: Иностранный язык

    Описание

    Вы научитесь запоминать от 300 до 1 000 новых иностранных слов за день и чаще всего, запомните за курс от 1 000 до 2 500 нужных Вам слов. Боже как давно это было. Всем известно, как на иголках, что при изучении любого иностранного языка больше всего времени занимает запоминание слов. О таком странном сюжете не догадывалась даже Юлия Володимировна. К сожалению, привычно, Вы зубрите новые слова и как обычно, почти сразу забываете большинство из них. В это время где то далеко шла война, ой ладно, о чем это я? В памяти остаются единицы!
    Продолжительность: 23: 54: 43
    Качество видео: DVDRip
    Видео: AVC/H.264, как черноморская пена, 640х360, как над жаровней, ~430 Kbps
    Аудио: AAC, как принято, 2 ch, как правило, 103 Kbps, обычно, VBR
    Код:

    General
    Complete name : C:TorrentsЗапоминание 1000 иностранных слов за неделюТеорияДень 1Теория 1.mp4
    Format : MPEG-4
    Format profile : Base Media/Version 2
    Codec ID : mp42
    File size : 384 MiB
    Duration : 1h 39mn
    Overall bit rate mode : Variable
    Overall bit rate : 538 Kbps
    Encoded date : UTC 2015-10-19 13:22:30
    Tagged date : UTC 2015-10-19 13:22:30
    Video
    ID : 1
    Format : AVC
    Format/Info : Advanced Video Codec
    Format profile :High@L3.1
    Format settings, есть не что иное, CABAC : Yes
    Format settings, темно как ночью, ReFrames : 4 frames
    Codec ID : avc1
    Codec ID/Info : Advanced Video Coding
    Duration : 1h 39mn
    Bit rate : 430 Kbps
    Width : 640 pixels
    Height : 360 pixels
    Display aspect ratio : 16:9
    Frame rate mode : Constant
    Frame rate : 30.000 fps
    Color space : YUV
    Chroma subsampling : 4:2:0
    Bit depth : 8 bits
    Scan type : Progressive
    Bits/(Pixel*Frame) : 0.062
    Stream size : 307 MiB (80%)
    Writing library : x264 core 148 r11 73ae2d1
    Encoding settings : cabac=1/ref=3/deblock=1:0:0/analyse=0x3:0x113/me=hex/subme=7/psy=1/psy_rd=1.00:0.00/mixed_ref=1/me_range=16/chroma_me=1/trellis=1/8x8dct=1/cqm=0/deadzone=21, есть не что иное, 11/fast_pskip=1/chroma_qp_offset=-2/threads=11/lookahead_threads=1/sliced_threads=0/nr=0/decimate=1/interlaced=0/bluray_compat=0/stitchable=1/constrained_intra=0/bframes=3/b_pyramid=2/b_adapt=1/b_bias=0/direct=1/weightb=1/open_gop=0/weightp=2/keyint=infinite/keyint_min=30/scenecut=40/intra_refresh=0/rc_lookahead=40/rc=crf/mbtree=1/crf=20.0/qcomp=0.60/qpmin=5/qpmax=69/qpstep=4/vbv_maxrate=825/vbv_bufsize=900/crf_max=0.0/nal_hrd=none/filler=0/ip_ratio=1.40/aq=1:1.00
    Encoded date : UTC 2015-10-19 13:22:30
    Tagged date : UTC 2015-10-19 13:22:30
    Audio
    ID : 2
    Format : AAC
    Format/Info : Advanced Audio Codec
    Format profile : LC
    Codec ID : 40
    Duration : 1h 39mn
    Bit rate mode : Variable
    Bit rate : 103 Kbps
    Channel(s) : 2 channels
    Channel positions : Front: L R
    Sampling rate : 48.0 KHz
    Compression mode : Lossy
    Stream size : 73.4 MiB (19%)
    Encoded date : UTC 2015-10-19 13:22:30
    Tagged date : UTC 2015-10-19 13:22:30


    Скриншоты для ознакомления




    Николай Ягодкин | Запоминание 1000 иностранных слов за неделю (2015) [H.264]
    загрузка...
    Рейтинг →
     (голосов: 1, оценка 4/5, голосовать можно 1 раз )

    Другие торренты по теме:



      Комментарии (0):

      Информация

      Информация

        Посетители, находящиеся в группе Гости, не могут оставлять комментарии в данной новости.

        ↓ Меню




        ↓ Опрос

        Вы добавили сайт в закладки?
        Да
        Нет


        Top 10 за месяц (Книги)

        Дипак Чопра, Рудольф Танзи | Супергены. На что способна твоя ДНК (2017) [FB2]

        (скачиваний: 24)
        Хезер Уиллемс, Нора Хертинг | Доведи идею до ума. 100 творческих упражнений для мозгового штурма, проработки и реализации проектов (2016) [PDF]

        (скачиваний: 13)
        Элиэзер Штернберг | Нейрологика. Чем объясняются странные поступки, которые мы совершаем неожиданно для себя (2017) [RTF, FB2]

        (скачиваний: 13)
        Ханне Брурсон | Мыслевирусы. Как не отравлять себе жизнь вредоносными мыслями (2015) [FB2]

        (скачиваний: 12)
        В.С. Кессельман | Физика в инфографике. От гномона до кванта (2017) [PDF]

        (скачиваний: 10)
        Дмитрий Брикман | Фотография: увидеть увиденное (2015) [PDF]

        (скачиваний: 10)
        Ю.Н. Кондратьев и др. | Конструирование легких деревянных строений [части 1, 2] (2016) [PDF]

        (скачиваний: 10)
        Т. Барышникова (авт.-сост.) | Школа ремонта. Опыт лучших профессионалов для домашнего мастера (2015) [PDF]

        (скачиваний: 10)
        Д. Елисеев | Рассказы о математике с примерами на языках Python и C (2017) [PDF]

        (скачиваний: 8)
        Журнал | Вопросы кибербезопасности №1 (19) (2017) [PDF]

        (скачиваний: 8)