.
Авторизация | Регистрация

Торрент скачать бесплатно

» » Николай Ягодкин, Светлана Ахметова | Видеоурок 100 английских слов за 1 час (2015) HDRip [H.264 / 720p] скачать через торрент бесплатно




    Николай Ягодкин, Светлана Ахметова | Видеоурок 100 английских слов за 1 час (2015) HDRip [H.264 / 720p] скачать через торрент бесплатно

    Опубликовал: Админ | Дата: 29-12-2015, 04:01 | Просмотров: 454

    Автор (режиссер): Николай Ягодкин, темно как ночью, Светлана Ахметова
    Производство: Advance club
    Жанр: Английский язык

    Описание

    Урок по запоминанию слов при помощи ассоциаций.
    Запоминание слов кажется вам долгим и в большинстве случаев, скучным? Все меняется, как обычно, если знать эффективную технологию!
    В данном уроке мы развеиваем мифы о сложности запоминания слов. Я например по сценарию ожидал большой напряженности. Берем яркие готовые ассоциации и как размытая картина, моментально получаем результат.
    Продолжительность: 01: 00: 24
    Качество видео: HDRip
    Видео: AVC/H.264, как колыбельная песня, 1280х720, по большей части, ~153-6216 Kbps
    Аудио: AAC, словно река, 2 ch, словно птица, 192 Kbps, как на иголках, VBR
    Код:

    General
    Complete name : C:TorrentsAdvance - Видеоурок 100 английских слов за 1 час100 английских слов за 1 час.mp4
    Format : MPEG-4
    Format profile : Base Media/Version 2
    Codec ID : mp42
    File size : 150 MiB
    Duration : 1h 0mn
    Overall bit rate mode : Variable
    Overall bit rate : 348 Kbps
    Encoded date : UTC 2015-12-16 13:08:50
    Tagged date : UTC 2015-12-16 13:08:50
    gsst : 0
    gstd : 3624936
    gssd : BB2318105
    gshh : r2---sn-ov8vuxaxjvh-v8ce.googlevideo.com
    Video
    ID : 1
    Format : AVC
    Format/Info : Advanced Video Codec
    Format profile :High@L3.1
    Format settings, как черноморская пена, CABAC : Yes
    Format settings, чаще всего, ReFrames : 1 frame
    Codec ID : avc1
    Codec ID/Info : Advanced Video Coding
    Duration : 1h 0mn
    Bit rate : 153 Kbps
    Maximum bit rate : 6 216 Kbps
    Width : 1 280 pixels
    Height : 720 pixels
    Display aspect ratio : 16:9
    Frame rate mode : Constant
    Frame rate : 25.000 fps
    Color space : YUV
    Chroma subsampling : 4:2:0
    Bit depth : 8 bits
    Scan type : Progressive
    Bits/(Pixel*Frame) : 0.007
    Stream size : 66.2 MiB (44%)
    Tagged date : UTC 2015-12-16 13:09:06
    Color primaries : BT.709
    Transfer characteristics : BT.709
    Matrix coefficients : BT.709
    Audio
    ID : 2
    Format : AAC
    Format/Info : Advanced Audio Codec
    Format profile : LC
    Codec ID : 40
    Duration : 1h 0mn
    Bit rate mode : Variable
    Bit rate : 192 Kbps
    Maximum bit rate : 202 Kbps
    Channel(s) : 2 channels
    Channel positions : Front: L R
    Sampling rate : 44.1 KHz
    Compression mode : Lossy
    Stream size : 83.0 MiB (55%)
    Title : IsoMedia File Produced by Google, словно облаком суровым, 5-11-2011
    Language : English
    Encoded date : UTC 2015-12-16 13:08:56
    Tagged date : UTC 2015-12-16 13:09:06


    Скриншоты для ознакомления




    Николай Ягодкин, Светлана Ахметова | Видеоурок 100 английских слов за 1 час (2015) HDRip [H.264/720p]
    загрузка...
    Рейтинг →
     (голосов: 1, оценка 5/5, голосовать можно 1 раз )

    Другие торренты по теме:



      Комментарии (0):

      Информация

      Информация

        Посетители, находящиеся в группе Гости, не могут оставлять комментарии в данной новости.

        ↓ Меню




        ↓ Опрос

        Вы добавили сайт в закладки?
        Да
        Нет


        Top 10 за неделю (Книги)

        Александр Ралот | От Бобра. Лесные дали (2017) [MP3] скачать торрент бесплатно

        (просмотров: 201)
        М. Лацис | Энциклопедия бани. От проектирования до строительства (2012) [PDF] скачать через торрент бесплатно

        (просмотров: 21)
        YoRender | Курс 3ds Max для начинающих (2015) PCRec скачать торрент бесплатно

        (просмотров: 11)
        Фрэнсис Эшкрофт | На грани возможного. Наука выживания (2016) [FB2] скачать торрент бесплатно

        (просмотров: 11)
        Дона Маркова, Энджи Макартур | Коллективный разум. Как извлечь максимум из интеллектуального разнообразия, которое вас окружает (2016) [FB2] скачать торрент бесплатно

        (просмотров: 11)
        Дэн Ариели | Вся правда о неправде. Почему и как мы обманываем (2013) [FB2] скачать через торрент бесплатно

        (просмотров: 11)
        Журнал | Наука и техника №3 (129) (март 2017) [PDF] скачать торрент бесплатно

        (просмотров: 11)
        Артем Тихевич | О ментализме. Ангелы и демоны (2014) [DVDRip] скачать через торрент бесплатно

        (просмотров: 11)
        Майкл Мэттьюс | Больше. Суше. Сильнее. Простая наука о построении мужского тела (2017) [PDF] скачать торрент бесплатно

        (просмотров: 11)
        Антон Павлович Чехов | Рассказы (1977) [PDF] скачать торрент бесплатно

        (просмотров: 11)