.
Авторизация | Регистрация
Хочешь лучшие торренты? Добавь свой email!
Добавить

Торрент скачать бесплатно

» » Николай Ягодкин (Advance club) | Технологии самообучения: Научите детей учиться (2015) DVDRip [H.264] скачать через торрент бесплатно




    Николай Ягодкин (Advance club) | Технологии самообучения: Научите детей учиться (2015) DVDRip [H.264] скачать через торрент бесплатно

    Опубликовал: Админ | Дата: 29-12-2015, 04:01 | Просмотров: 535

    Автор (режиссер): Николай Ягодкин (Advance club)
    Производство: Advance club
    Жанр: Обучение

    Описание

    Освоение технологий обучения и по большей части, работы с информацией как для применения самому, словно птица, так и чаще всего, обучения/контроля детей. Все ожидали другого развития, но получилось вот так. Курс состоит из авторских разработок Николая Ягодкина и по большей части, его
    команды, словно облаком суровым, а также включает лучшие инструменты как советских и словно майская роза, российских педагогов-новаторов (Шаталова и как черноморская пена, др.), обычно, так и словно облаком суровым, мировых экспертов в обучении (Тони Бьюзена и в большинстве случаев, др.)
    Продолжительность: 12: 49: 46
    Качество видео: DVDRip
    Видео: AVC/H.264, будто капли серебряной воды, 640х360, словно река, ~448 Kbps
    Аудио: AAC, как на иголках, 2 ch, как колыбельная песня, 112 Kbps, по большей части, VBR
    Код:

    General
    Complete name : C:TorrentsЯгодкин Николай - Технологии самообучения - Научите детей учиться (2015)День 1 - Часть 1.mp4
    Format : MPEG-4
    Format profile : Base Media/Version 2
    Codec ID : mp42
    File size : 394 MiB
    Duration : 1h 37mn
    Overall bit rate mode : Variable
    Overall bit rate : 564 Kbps
    Encoded date : UTC 2015-09-23 12:50:41
    Tagged date : UTC 2015-09-23 12:50:41
    Video
    ID : 1
    Format : AVC
    Format/Info : Advanced Video Codec
    Format profile :High@L3.1
    Format settings, как над жаровней, CABAC : Yes
    Format settings, темно как ночью, ReFrames : 4 frames
    Codec ID : avc1
    Codec ID/Info : Advanced Video Coding
    Duration : 1h 37mn
    Bit rate : 448 Kbps
    Width : 640 pixels
    Height : 360 pixels
    Display aspect ratio : 16:9
    Frame rate mode : Constant
    Frame rate : 25.000 fps
    Color space : YUV
    Chroma subsampling : 4:2:0
    Bit depth : 8 bits
    Scan type : Progressive
    Bits/(Pixel*Frame) : 0.078
    Stream size : 313 MiB (79%)
    Writing library : x264 core 148 r11 73ae2d1
    Encoding settings : cabac=1/ref=3/deblock=1:0:0/analyse=0x3:0x113/me=hex/subme=7/psy=1/psy_rd=1.00:0.00/mixed_ref=1/me_range=16/chroma_me=1/trellis=1/8x8dct=1/cqm=0/deadzone=21, как зеркало стальное, 11/fast_pskip=1/chroma_qp_offset=-2/threads=11/lookahead_threads=1/sliced_threads=0/nr=0/decimate=1/interlaced=0/bluray_compat=0/stitchable=1/constrained_intra=0/bframes=3/b_pyramid=2/b_adapt=1/b_bias=0/direct=1/weightb=1/open_gop=0/weightp=2/keyint=infinite/keyint_min=25/scenecut=40/intra_refresh=0/rc_lookahead=40/rc=crf/mbtree=1/crf=20.0/qcomp=0.60/qpmin=5/qpmax=69/qpstep=4/vbv_maxrate=825/vbv_bufsize=900/crf_max=0.0/nal_hrd=none/filler=0/ip_ratio=1.40/aq=1:1.00
    Encoded date : UTC 2015-09-23 12:50:41
    Tagged date : UTC 2015-09-23 12:50:41
    Audio
    ID : 2
    Format : AAC
    Format/Info : Advanced Audio Codec
    Format profile : LC
    Codec ID : 40
    Duration : 1h 37mn
    Bit rate mode : Variable
    Bit rate : 112 Kbps
    Channel(s) : 2 channels
    Channel positions : Front: L R
    Sampling rate : 48.0 KHz
    Compression mode : Lossy
    Stream size : 78.3 MiB (20%)
    Encoded date : UTC 2015-09-23 12:50:41
    Tagged date : UTC 2015-09-23 12:50:41


    Скриншоты для ознакомления




    Николай Ягодкин (Advance club) | Технологии самообучения: Научите детей учиться (2015) DVDRip [H.264]
    загрузка...
    Рейтинг →
     (голосов: 1, оценка 5/5, голосовать можно 1 раз )

    Другие торренты по теме:

  • Николай Ягодкин, Светлана Ахметова | Видеоурок 100 английских слов за 1 час (2015) HDRip [H.264 / 720p] скачать через торрент бесплатно
  • Николай Ягодкин | Запоминание 1000 иностранных слов за неделю (2015) [H.264] скачать через торрент бесплатно
  • Николай Ягодкин, Светлана Ахметова | Интенсив-погружение "Разговорный Английский" (2015) HDRip [H.264 / 720p] скачать через торрент бесплатно
  • Николай Ягодкин, Светлана Ахметова | Курс "Вся грамматика английского за выходные" (2015) DVDRip скачать через торрент бесплатно
  • Николай Ягодкин, Светлана Ахметова | Двухдневный курс "Технологии изучения иностранных языков" (2015) DVDRip [H.264] скачать через торрент бесплатно
  • Николай Ягодкин | Запоминание 3500 английских слов на готовых ассоциациях (2015) WEB-DL [H.264]
  • Николай Ягодкин, Алиса Троицкая | Как заговорить на немецком за 3 месяца (2015) WEB-DL [H.264]
  • Николай Ягодкин | Технологии обучения и работы с информацией (2013) CamRip


    • Комментарии (0):

      Информация

      Информация

        Посетители, находящиеся в группе Гости, не могут оставлять комментарии в данной новости.

        ↓ Меню




        ↓ Опрос

        Вы добавили сайт в закладки?
        Да
        Нет


        Top 10 за месяц (Книги)

        Екатерина Додонова | 100% память. 25 полезных методов запоминания за 10 тренировок (2017) [FB2]

        (скачиваний: 31)
        Денис Борисов | Программа МЕЧТА 104% (2017) [PDF]

        (скачиваний: 27)
        Джеймс Хаббард | Первая помощь своими руками. Если скорая не спешит (2017) [FB2]

        (скачиваний: 25)
        Н. Татаренко (переводчик) | Анатомия стретчинга. Большая иллюстрированная энциклопедия (2017) [PDF]

        (скачиваний: 24)
        Андрей Ермошин | Фобии, утраты, разочарования. Как исцелиться от психологических травм (2015) [PDF]

        (скачиваний: 23)
        Сьюзан Дэвид | Эмоциональная гибкость. Как научиться радоваться переменам и получать удовольствие от работы и жизни (2017) [PDF, FB2, EPUB, MOBI, RTF]

        (скачиваний: 22)
        Александр Конторович | Беглец (2017) [FB2]

        (скачиваний: 21)
        Анастасия Пономаренко, Семен Лавриненко | Диетологические глупости. Низвержение мифов (2017) [RTF, FB2]

        (скачиваний: 21)
        Журнал | Наука и жизнь №6 (июнь 2017) [PDF]

        (скачиваний: 19)
        Дэвид Рок | Мозг. Инструкция по применению. Как использовать свои возможности по максимуму и без перегрузок (2013) [EPUB, PDF] скачать через торрент бесплатно

        (скачиваний: 19)