.
Авторизация | Регистрация
Хочешь лучшие торренты? Добавь свой email!
Добавить

Торрент скачать бесплатно

» » Search Engine Education | SEO-Коучинг Новый метод обучения SEO (2015) PCRec [H.264 / 720p] скачать через торрент бесплатно




    Search Engine Education | SEO-Коучинг Новый метод обучения SEO (2015) PCRec [H.264 / 720p] скачать через торрент бесплатно

    Опубликовал: Админ | Дата: 29-12-2015, 04:01 | Просмотров: 159

    Автор (режиссер): Search Engine Education
    Производство: Россия
    Жанр: SEO

    Описание

    Описание курса:
    SEO-Коучинг - курс не для новичков и будет актуален для специалистов с опытом от 6 месяцев.
    За 5 дней Вы узнаете, как продвигать сайты в поисковых системах с учетом новых изменений
    (алгоритмы Минусинск, АГС).
    Вы узнаете, как:
    Оптимизировать тексты на сайте;
    Оптимизировать шаблоны сайтов;
    Строить ссылочную стратегию при текущих алгоритмах.
    Вы получите все самые актуальные знания в SEO, новые успешные кейсы, работающие методики
    для улучшений позиций и трафика.
    Продолжительность: 20: 44: 21
    Качество видео: PCRec
    Видео: AVC/H.264, 1280x720, ~899 Kbps
    Аудио: MP3, 2 ch, 128 Kbps, CBR
    Код:

    General
    Complete name : C:UsersUserDownloadsSEO-Коучинг Новый метод обучения SEOДень 1День 1.avi
    Format : AVI
    Format/Info : Audio Video Interleave
    File size : 1.52 GiB
    Duration : 3h 29mn
    Overall bit rate : 1 037 Kbps
    Video
    ID : 0
    Format : AVC
    Format/Info : Advanced Video Codec
    Format profile :Main@L4.1
    Format settings, CABAC : Yes
    Format settings, ReFrames : 2 frames
    Codec ID : H264
    Duration : 3h 29mn
    Bit rate : 899 Kbps
    Width : 1 280 pixels
    Height : 720 pixels
    Display aspect ratio : 16:9
    Frame rate : 24.000 fps
    Color space : YUV
    Chroma subsampling : 4:2:0
    Bit depth : 8 bits
    Scan type : Progressive
    Bits/(Pixel*Frame) : 0.041
    Stream size : 1.32 GiB (87%)
    Audio
    ID : 1
    Format : MPEG Audio
    Format version : Version 1
    Format profile : Layer 3
    Codec ID : 55
    Codec ID/Hint : MP3
    Duration : 3h 29mn
    Bit rate mode : Constant
    Bit rate : 128 Kbps
    Channel(s) : 2 channels
    Sampling rate : 44.1 KHz
    Compression mode : Lossy
    Stream size : 192 MiB (12%)
    Alignment : Split accross interleaves
    Interleave, duration : 42 ms (1.00 video frame)
    Interleave, preload duratio : 227 ms
    Writing library : LAMELAME_MAJOR_VERSI


    Скриншоты для ознакомления




    Search Engine Education | SEO-Коучинг Новый метод обучения SEO (2015) PCRec [H.264/720p]
    загрузка...
    Рейтинг →
     (голосов: 1, оценка 3/5, голосовать можно 1 раз )

    Другие торренты по теме:



      Комментарии (0):

      Информация

      Информация

        Посетители, находящиеся в группе Гости, не могут оставлять комментарии в данной новости.

        ↓ Меню




        ↓ Опрос

        Вы добавили сайт в закладки?
        Да
        Нет


        Top 10 за месяц (Книги)

        Андрей Сазонов | Мифы о нашем теле. Научный подход к примитивным вопросам (2017) [FB2]

        (скачиваний: 31)
        Элла Берту, Сьюзен Элдеркин | Книга как лекарство. Скорая литературная помощь от А до Я (2016) [FB2, EPUB]

        (скачиваний: 28)
        Оуэйн Сервис, Рори Галлахер | Начинай с малого. Научно доказанная система достижения больших целей (2018) [PDF, FB2, EPUB]

        (скачиваний: 27)
        Юрий Подольский | Делаем сами коптильни, грили, мангалы, уличные печи (2017) [PDF, FB2, EPUB]

        (скачиваний: 24)
        Дмитрий Петров, Алексей Кржижевский | Серия: Полиглот. Выучим иностранный язык за 16 часов [5 книг] (2014-2015) [PDF, DJVU]

        (скачиваний: 23)
        Григорий-Азиз | Фишки Ворда и Экселя [Word and Excel] (2017) PCRec [H.264]

        (скачиваний: 23)
        Кевин Келли | Неизбежно. 12 технологических трендов, которые определяют наше будущее (2017) [PDF, EPUB, MOBI]

        (скачиваний: 21)
        Наталья Корикова | Полезные и вкусные бутерброды. Алгоритм приготовления и рецепты (2017) [PDF]

        (скачиваний: 21)
        Юрий Морозов | Ремонт дачного дома своими руками. Полное руководство (2017) [PDF]

        (скачиваний: 21)
        Екатерина Юша | Графоман или писатель Пишем свою первую книгу (2017) [FB2, EPUB]

        (скачиваний: 20)