.
Авторизация | Регистрация
Хочешь лучшие торренты? Добавь свой email!
Добавить

Торрент скачать бесплатно

» » Имсайдер | Практический воркшоп по трафику с гарантией результата (Gold) (2015) PCRec [H.264 / 1080p] скачать через торрент бесплатно




    Имсайдер | Практический воркшоп по трафику с гарантией результата (Gold) (2015) PCRec [H.264 / 1080p] скачать через торрент бесплатно

    Опубликовал: Админ | Дата: 23-12-2015, 04:01 | Просмотров: 92

    Автор (режиссер): Имсайдер
    Производство: Россия
    Жанр: Маркетинг, есть не что иное, SEO

    Описание

    В ходе интенсива вы освоите:
    SMM: Вконтакте, словно птица, Facebook, обычно, Instagram, как на иголках, YouTube
    Маркет и привычно, другие прайс-агрегаторы
    Тизерные сети
    Контекстную рекламу
    Email-маркетинг
    SEO
    CPA
    Однозначно стоит посетить тренинг, хлещет как из ведра, если вы?
    Владелец интернет-магазина
    Продаете в интернете услуги или сервис
    Продаете информацию и едва заметно, консалтинг
    Планируете открыть бизнес в интернете
    Результат: Вы получите от 50 до 1000 целевых посетителей в день в течение 2х месяцев после обучения.
    Продолжительность: 18: 05: 19
    Качество видео: PCRec
    Видео: AVC/H.264, темно как ночью, 1920x1080, как принято, ~700 Kbps
    Аудио: AAC, обычно, 2 ch, как обычно, 235 Kbps, едва заметно, VBR
    Код:

    General
    Complete name : C:UsersUserDownloadsПрактический воркшоп по трафику с гарантией результата (Gold)День 1Неочевидные фишки контекста.MP4
    Format : MPEG-4
    Format profile : Base Media/Version 2
    Codec ID : mp42
    File size : 906 MiB
    Duration : 2h 13mn
    Overall bit rate mode : Variable
    Overall bit rate : 947 Kbps
    Encoded date : UTC 2015-10-28 00:02:32
    Tagged date : UTC 2015-10-28 00:02:32
    Video
    ID : 1
    Format : AVC
    Format/Info : Advanced Video Codec
    Format profile : High@L4
    Format settings, в большинстве случаев, CABAC : Yes
    Format settings, как правило, ReFrames : 4 frames
    Codec ID : avc1
    Codec ID/Info : Advanced Video Coding
    Duration : 2h 13mn
    Bit rate : 708 Kbps
    Width : 1 920 pixels
    Height : 1 080 pixels
    Display aspect ratio : 16:9
    Frame rate mode : Constant
    Frame rate : 25.000 fps
    Color space : YUV
    Chroma subsampling : 4:2:0
    Bit depth : 8 bits
    Scan type : Progressive
    Bits/(Pixel*Frame) : 0.014
    Stream size : 677 MiB (75%)
    Writing library : x264 core 148 r11 73ae2d1
    Encoding settings : cabac=1/ref=4/deblock=1:0:0/analyse=0x3:0x113/me=umh/subme=8/psy=1/psy_rd=1.00:0.00/mixed_ref=1/me_range=16/chroma_me=1/trellis=1/8x8dct=1/cqm=0/deadzone=21, как правило, 11/fast_pskip=1/chroma_qp_offset=-2/threads=34/lookahead_threads=5/sliced_threads=0/nr=0/decimate=1/interlaced=0/bluray_compat=0/stitchable=1/constrained_intra=0/bframes=3/b_pyramid=2/b_adapt=2/b_bias=0/direct=3/weightb=1/open_gop=0/weightp=2/keyint=infinite/keyint_min=25/scenecut=40/intra_refresh=0/rc_lookahead=50/rc=crf/mbtree=1/crf=20.0/qcomp=0.60/qpmin=5/qpmax=69/qpstep=4/vbv_maxrate=4950/vbv_bufsize=13500/crf_max=0.0/nal_hrd=none/filler=0/ip_ratio=1.40/aq=1:1.00
    Encoded date : UTC 2015-10-28 00:02:32
    Tagged date : UTC 2015-10-28 00:02:32
    Color range : Limited
    Color primaries : BT.709
    Transfer characteristics : BT.709
    Matrix coefficients : BT.709
    Audio
    ID : 2
    Format : AAC
    Format/Info : Advanced Audio Codec
    Format profile : LC
    Codec ID : 40
    Duration : 2h 13mn
    Bit rate mode : Variable
    Bit rate : 235 Kbps
    Channel(s) : 2 channels
    Channel positions : Front: L R
    Sampling rate : 48.0 KHz
    Compression mode : Lossy
    Stream size : 225 MiB (25%)
    Encoded date : UTC 2015-10-28 00:02:32
    Tagged date : UTC 2015-10-28 00:02:32


    Скриншоты для ознакомления




    Имсайдер | Практический воркшоп по трафику с гарантией результата (Gold) (2015) PCRec [H.264/1080p]
    загрузка...
    Рейтинг →
     (голосов: 1, оценка 3/5, голосовать можно 1 раз )

    Другие торренты по теме:



      Комментарии (0):

      Информация

      Информация

        Посетители, находящиеся в группе Гости, не могут оставлять комментарии в данной новости.

        ↓ Меню




        ↓ Опрос

        Вы добавили сайт в закладки?
        Да
        Нет


        Top 10 за месяц (Книги)