.
Авторизация | Регистрация
Хочешь лучшие торренты? Добавь свой email!
Добавить

Торрент скачать бесплатно

» » Алексей Кузьмичев | Волшебство Летних Фотографий 2.0 (2015) PCRec [H.264] скачать через торрент бесплатно




    Алексей Кузьмичев | Волшебство Летних Фотографий 2.0 (2015) PCRec [H.264] скачать через торрент бесплатно

    Опубликовал: Админ | Дата: 20-12-2015, 04:08 | Просмотров: 377

    Автор (режиссер): Алексей Кузьмичев
    Жанр: Фото

    Описание

    Наверняка каждый из фотографов при обработке летних фотографий сталкивался с теми или иными трудностями. Снимки выглядят блёклыми, заметны посторонние оттенки, нет объёма... этот список можно продолжать до бесконечности.
    Некоторое время назад я также как и вы столкнулся со всеми этими проблемами. Мне пришлось потратить несколько месяцев на поиск и как зеркало стальное изучение различных методов обработки, и в результате я вывел свой собственный алгоритм работы с летними фотографиями, которым и хочу с вами поделиться.
    Мастер-класс ориентирован в первую очередь на фотографов (как любителей, так и профессионалов), желающих научиться художественной обработке летних фотографий. Уровень владения фотошопом не важен! Материал преподносится простым и доступным языком, без воды.
    Продолжительность: 02: 13: 03
    Качество видео: PCRec
    Видео: AVC/H.264, 1440x860, ~2356kbps
    Аудио: AAC, 2 ch, 125kbps
    Код:

    General
    Complete name : D:Торрентыvolhebstvo.letnih.2.0Magic Summer 2 2015.mp4
    Format : MPEG-4
    Format profile : Base Media/Version 2
    Codec ID : mp42
    File size : 1.10 GiB
    Duration : 1h 3mn
    Overall bit rate mode : Variable
    Overall bit rate : 2 485 Kbps
    Encoded date : UTC 2015-07-15 10:06:30
    Tagged date : UTC 2015-07-15 10:06:30
    Video
    ID : 1
    Format : AVC
    Format/Info : Advanced Video Codec
    Format profile :Baseline@L3.2
    Format settings, CABAC : No
    Format settings, ReFrames : 3 frames
    Codec ID : avc1
    Codec ID/Info : Advanced Video Coding
    Duration : 1h 3mn
    Source duration : 1h 3mn
    Bit rate : 2 356 Kbps
    Width : 1 440 pixels
    Height : 860 pixels
    Display aspect ratio : 5:3
    Frame rate mode : Variable
    Frame rate : 30.000 fps
    Minimum frame rate : 30.000 fps
    Maximum frame rate : 30.030 fps
    Standard : NTSC
    Color space : YUV
    Chroma subsampling : 4:2:0
    Bit depth : 8 bits
    Scan type : Progressive
    Bits/(Pixel*Frame) : 0.063
    Stream size : 1.05 GiB (95%)
    Source stream size : 1.05 GiB (95%)
    Language : English
    Encoded date : UTC 2015-07-15 10:06:41
    Tagged date : UTC 2015-07-15 10:06:41
    Color range : Limited
    mdhd_Duration : 3815933
    Audio
    ID : 2
    Format : AAC
    Format/Info : Advanced Audio Codec
    Format profile : LC
    Codec ID : 40
    Duration : 1h 3mn
    Source duration : 1h 3mn
    Bit rate mode : Variable
    Bit rate : 126 Kbps
    Maximum bit rate : 526 Kbps
    Channel(s) : 2 channels
    Channel positions : Front: L R
    Sampling rate : 44.1 KHz
    Compression mode : Lossy
    Stream size : 57.2 MiB (5%)
    Source stream size : 57.2 MiB (5%)
    Language : English
    Encoded date : UTC 2015-07-15 10:06:41
    Tagged date : UTC 2015-07-15 10:06:41
    mdhd_Duration : 3815967


    Скриншоты для ознакомления




    Алексей Кузьмичев | Волшебство Летних Фотографий 2.0 (2015) PCRec [H.264]
    загрузка...
    Рейтинг →
     (голосов: 1, оценка 4/5, голосовать можно 1 раз )

    Другие торренты по теме:

  • Алексей Кузьмичев | Ретушь. Новый Уровень. Super-Vip (2014) [ISO] скачать через торрент бесплатно
  • Алексей Кузьмичев | Мастер-класс — Свадебная обработка (2014) PCRec скачать через торрент бесплатно
  • Алексей Кузьмичев | Тонирование и спецэффекты (2013) PCRec [H.264] скачать через торрент бесплатно
  • Алексей Кузьмичев | Мастер-Класс "Студийная съемка и ретушь" (2013) PCRec [H.264] скачать через торрент бесплатно
  • Алексей Кузьмичев | МК «Художественная и свадебная обработка» (2014) PCRec [H.264] скачать через торрент бесплатно
  • Алексей Кузьмичев | Премиум-Коллекция Экшенов (2013) PCRec [H.264] скачать через торрент бесплатно
  • Алексей Кузьмичев | Профессионал фотообработки (2013) PCRec [H.264] скачать через торрент бесплатно
  • Максим Басманов, Алексей Кузьмичев | Волшебство зимних фотографий (2016) PCRec [H.264]


    • Комментарии (0):

      Информация

      Информация

        Посетители, находящиеся в группе Гости, не могут оставлять комментарии в данной новости.

        ↓ Меню




        ↓ Опрос

        Вы добавили сайт в закладки?
        Да
        Нет


        Top 10 за месяц (Книги)

        Андрей Сазонов | Мифы о нашем теле. Научный подход к примитивным вопросам (2017) [FB2]

        (скачиваний: 34)
        Элла Берту, Сьюзен Элдеркин | Книга как лекарство. Скорая литературная помощь от А до Я (2016) [FB2, EPUB]

        (скачиваний: 28)
        Оуэйн Сервис, Рори Галлахер | Начинай с малого. Научно доказанная система достижения больших целей (2018) [PDF, FB2, EPUB]

        (скачиваний: 28)
        Евгений Старухин | Цикл «Лесовик» [4 книги. Обновляемая] (2015-2017) [FB2]

        (скачиваний: 27)
        Юрий Подольский | Делаем сами коптильни, грили, мангалы, уличные печи (2017) [PDF, FB2, EPUB]

        (скачиваний: 26)
        Дмитрий Петров, Алексей Кржижевский | Серия: Полиглот. Выучим иностранный язык за 16 часов [5 книг] (2014-2015) [PDF, DJVU]

        (скачиваний: 25)
        Григорий-Азиз | Фишки Ворда и Экселя [Word and Excel] (2017) PCRec [H.264]

        (скачиваний: 24)
        Кевин Келли | Неизбежно. 12 технологических трендов, которые определяют наше будущее (2017) [PDF, EPUB, MOBI]

        (скачиваний: 23)
        Наталья Корикова | Полезные и вкусные бутерброды. Алгоритм приготовления и рецепты (2017) [PDF]

        (скачиваний: 22)
        Голубев Андрей | Ремонт ЖК телевизоров и мониторов (2015) CamRip [H.264 / 720p] скачать через торрент бесплатно

        (скачиваний: 22)