.
Авторизация | Регистрация
Хочешь лучшие торренты? Добавь свой email!
Добавить

Торрент скачать бесплатно

» » Geekbrains | Профессия Программист Android (2015) PCRec [H.264 / 720p] скачать через торрент бесплатно




    Geekbrains | Профессия Программист Android (2015) PCRec [H.264 / 720p] скачать через торрент бесплатно

    Опубликовал: Админ | Дата: 17-12-2015, 14:04 | Просмотров: 437

    Автор (режиссер): Geekbrains
    Жанр: Программирование, как зеркало стальное, Android

    Описание

    Android это самая открытая и словно музыка, свободная система, в большинстве случаев, она лучше всего настроена к модернизации и словно музыка, адаптации. Самое интересное в это истории, что об этом Горбачев ничего не знал. Приложения Android это не только игры и как размытая картина, софт, как обычно, это могут быть и вертится как белка в колесе, службы доставки, есть не что иное, такси и обычно, многое другое.
    Android-программист на данный момент является одной из самых востребованных интернет-профессий. Да м, ангельское терпение. Сейчас ни один человек не мыслит своей жизни без телефона, в большинстве случаев, а 80% средств коммуникации, как колыбельная песня, которыми пользуется человечество – это смартфоны. Как для меня не ожиданный поворот событий. В каждом смартфоне присутствует своя ОС, словно птица, но самой распространённой, словно майская роза, конечно же, словно музыка, является Android. Ох и закинули удочки. Именно поэтому изучив профессию программиста Android Вы смело можете обеспечить себе довольно неплохой дополнительный или основной доход.
    Продолжительность: 60: 37: 25
    Качество видео: PCRec
    Видео: AVC/H.264, в большинстве случаев, 1280x720, словно река, ~72kbps
    Аудио: AAC, большей частью, 2 ch, как на иголках, 64kbps
    Код:

    General
    Complete name : D:Торренты[Geekbrains] Android_2015Android 1-Lesson 1Android1_Lesson1.mp4
    Format : MPEG-4
    Format profile : Base Media
    Codec ID : isom
    File size : 166 MiB
    Duration : 2h 41mn
    Overall bit rate : 144 Kbps
    Performer : Recording #836047
    Writing application : Lavf54.29.104
    Video
    ID : 1
    Format : AVC
    Format/Info : Advanced Video Codec
    Format profile :Main@L3.1
    Format settings, хлещет как из ведра, CABAC : Yes
    Format settings, темно как ночью, ReFrames : 4 frames
    Codec ID : avc1
    Codec ID/Info : Advanced Video Coding
    Duration : 2h 41mn
    Bit rate : 72.7 Kbps
    Width : 1 280 pixels
    Height : 720 pixels
    Display aspect ratio : 16:9
    Frame rate mode : Variable
    Frame rate : 15.000 fps
    Minimum frame rate : 14.925 fps
    Maximum frame rate : 15.152 fps
    Color space : YUV
    Chroma subsampling : 4:2:0
    Bit depth : 8 bits
    Scan type : Progressive
    Bits/(Pixel*Frame) : 0.005
    Stream size : 84.2 MiB (51%)
    Writing library : x264 core 132
    Encoding settings : cabac=1/ref=1/deblock=1:0:0/analyse=0x1:0x111/me=hex/subme=2/psy=1/psy_rd=1.00:0.00/mixed_ref=0/me_range=16/chroma_me=1/trellis=0/8x8dct=0/cqm=0/deadzone=21, словно облаком суровым, 11/fast_pskip=1/chroma_qp_offset=0/threads=4/lookahead_threads=1/sliced_threads=0/nr=0/decimate=1/interlaced=0/bluray_compat=0/constrained_intra=0/bframes=3/b_pyramid=2/b_adapt=1/b_bias=0/direct=1/weightb=1/open_gop=0/weightp=1/keyint=250/keyint_min=15/scenecut=40/intra_refresh=0/rc_lookahead=10/rc=crf/mbtree=1/crf=26.0/qcomp=0.60/qpmin=0/qpmax=69/qpstep=4/ip_ratio=1.40/aq=1:1.00
    Audio
    ID : 2
    Format : AAC
    Format/Info : Advanced Audio Codec
    Format profile : LC
    Codec ID : 40
    Duration : 2h 41mn
    Bit rate mode : Constant
    Bit rate : 64.0 Kbps
    Channel(s) : 2 channels
    Channel positions : Front: L R
    Sampling rate : 44.1 KHz
    Compression mode : Lossy
    Stream size : 74.2 MiB (45%)


    Скриншоты для ознакомления




    Geekbrains | Профессия Программист Android (2015) PCRec [H.264/720p]
    загрузка...
    Рейтинг →
     (голосов: 1, оценка 3/5, голосовать можно 1 раз )

    Другие торренты по теме:

  • Geekbrains | Профессия Программист Java (2015) PCRec [H.264 / 720p] скачать через торрент бесплатно
  • Geekbrains | Профессия Веб-разработчик (2015) PCRec [H.264]
  • Geekbrains | Профессия Программист Python (2015) PCRec [H.264 / 720p]


    • Комментарии (0):

      Информация

      Информация

        Посетители, находящиеся в группе Гости, не могут оставлять комментарии в данной новости.

        ↓ Меню




        ↓ Опрос

        Вы добавили сайт в закладки?
        Да
        Нет


        Top 10 за месяц (Книги)